<?xml version="1.0" standalone="no"?>
<!DOCTYPE svg PUBLIC "-//W3C//DTD SVG 1.1//EN" "http://www.w3.org/Graphics/SVG/1.1/DTD/svg11.dtd" >
<svg xmlns="http://www.w3.org/2000/svg" xmlns:xlink="http://www.w3.org/1999/xlink" version="1.1">
<metadata>
Created by FontForge 20170812 at Thu Mar 31 14:21:11 2022
 By www-data
</metadata>
<defs>
<font id="TheFlowersRegular" horiz-adv-x="0" >
  <font-face 
    font-family="The Flowers"
    font-weight="400"
    font-stretch="normal"
    units-per-em="1000"
    panose-1="0 0 0 0 0 0 0 0 0 0"
    ascent="800"
    descent="-200"
    x-height="340.005"
    cap-height="730.145"
    bbox="-133.321 -481.67 1164.7 1045.68"
    underline-thickness="50"
    underline-position="-100"
    unicode-range="U+000A-20AC"
  />
<missing-glyph horiz-adv-x="527" 
d="M50 700h427v-700h-427v700zM78 680l185 -309l186 309h-371zM251 350l-180 300v-601zM264 329l-185 -308h370zM276 350l181 -303v605z" />
    <glyph glyph-name=".notdef" horiz-adv-x="527" 
d="M50 700h427v-700h-427v700zM78 680l185 -309l186 309h-371zM251 350l-180 300v-601zM264 329l-185 -308h370zM276 350l181 -303v605z" />
    <glyph glyph-name=".null" 
 />
    <glyph glyph-name=".null" 
 />
    <glyph glyph-name="LF" unicode="&#xa;" 
 />
    <glyph glyph-name="controlCR" unicode="&#xd;" 
 />
    <glyph glyph-name="space" unicode=" " horiz-adv-x="342" 
 />
    <glyph glyph-name="exclam" unicode="!" horiz-adv-x="217" 
d="M122.939 532.257c21.4512 1.01367 45.0977 -14.1445 44.1592 -38.0957c-3.78906 -96.7715 -12.2822 -193.305 -16.4502 -290.079c-2.09961 -48.7031 -4.15527 -97.4033 -6.37109 -146.104c-1.1543 -25.2998 -2.88184 -50.5938 -6.51465 -75.6621
c-3.49512 -24.1172 -6.82422 -54.5674 -31.5518 -65.876c-48.8164 -22.3242 -51.7705 95.0752 -53.2783 119.931c-2.98535 49.1133 -3.3418 98.5234 -2.60352 147.702c1.53027 102.095 5.48828 204.239 19.6289 305.438c3.36426 24.0576 30.582 41.6846 52.9814 42.7451z
M103.343 -117.851c16.6631 2.74707 38.2109 -8.34961 36.9277 -27.6816c-1.55176 -23.3438 -0.957031 -47.4424 -5.26562 -70.4668c-5.29492 -28.2822 -46.623 -36.6465 -59.1309 -10.0791c-9.65332 20.5029 -9.93457 46.2188 -7.70312 68.3799
c1.98047 19.6895 14.5381 36.4434 35.1719 39.8477z" />
    <glyph glyph-name="quotedbl" unicode="&#x22;" horiz-adv-x="240" 
d="M84.2764 506.347c14.7354 2.43164 34.8506 -7.52344 33.2793 -24.9473c-1.36426 -15.1641 -2.43457 -30.4131 -3.32617 -45.6113c-0.641602 -10.9707 -3.7207 -26.4355 0.945312 -36.6309c9.77539 -21.3574 -26.8525 -48.7754 -44.0566 -32.0088
c-26.0322 25.3691 -22.1016 69.7451 -18.5469 103.281c1.88086 17.7461 13.0332 32.8379 31.7051 35.917zM161.319 488.609c19.792 0.772461 31.333 -14.3223 28.2822 -33.041c-3.64258 -22.3486 -7.95508 -44.1592 -15.0303 -65.7012
c-5.21973 -15.8906 -30.9854 -31.3057 -43.2988 -12.9121c-13.8066 20.6221 -7.71387 52.1895 -5.78906 75.543c1.58301 19.2451 15.749 35.3291 35.8359 36.1113z" />
    <glyph glyph-name="quotedbl" unicode="&#x201d;" horiz-adv-x="240" 
d="M84.2764 506.347c14.7354 2.43164 34.8506 -7.52344 33.2793 -24.9473c-1.36426 -15.1641 -2.43457 -30.4131 -3.32617 -45.6113c-0.641602 -10.9707 -3.7207 -26.4355 0.945312 -36.6309c9.77539 -21.3574 -26.8525 -48.7754 -44.0566 -32.0088
c-26.0322 25.3691 -22.1016 69.7451 -18.5469 103.281c1.88086 17.7461 13.0332 32.8379 31.7051 35.917zM161.319 488.609c19.792 0.772461 31.333 -14.3223 28.2822 -33.041c-3.64258 -22.3486 -7.95508 -44.1592 -15.0303 -65.7012
c-5.21973 -15.8906 -30.9854 -31.3057 -43.2988 -12.9121c-13.8066 20.6221 -7.71387 52.1895 -5.78906 75.543c1.58301 19.2451 15.749 35.3291 35.8359 36.1113z" />
    <glyph glyph-name="quotedbl" unicode="&#x201c;" horiz-adv-x="240" 
d="M84.2764 506.347c14.7354 2.43164 34.8506 -7.52344 33.2793 -24.9473c-1.36426 -15.1641 -2.43457 -30.4131 -3.32617 -45.6113c-0.641602 -10.9707 -3.7207 -26.4355 0.945312 -36.6309c9.77539 -21.3574 -26.8525 -48.7754 -44.0566 -32.0088
c-26.0322 25.3691 -22.1016 69.7451 -18.5469 103.281c1.88086 17.7461 13.0332 32.8379 31.7051 35.917zM161.319 488.609c19.792 0.772461 31.333 -14.3223 28.2822 -33.041c-3.64258 -22.3486 -7.95508 -44.1592 -15.0303 -65.7012
c-5.21973 -15.8906 -30.9854 -31.3057 -43.2988 -12.9121c-13.8066 20.6221 -7.71387 52.1895 -5.78906 75.543c1.58301 19.2451 15.749 35.3291 35.8359 36.1113z" />
    <glyph glyph-name="numbersign" unicode="#" horiz-adv-x="480" 
d="M418.73 259.582c19.627 -0.854492 10.1172 -28.626 -6.77734 -27.916c-17.2295 0.729492 -34.4619 1.24609 -51.6943 1.66504c-1.74023 -15.8779 -3.38574 -31.7646 -4.8623 -47.6641c-0.454102 -4.86621 -0.879883 -9.73242 -1.32422 -14.5957
c15.8594 0.28125 31.7217 0.484375 47.584 0.549805c17.8711 0.0751953 9.19336 -25.5215 -6.19336 -25.5312c-14.5635 -0.00976562 -29.124 -0.125977 -43.6816 -0.323242c-3.73047 -41.9912 -7.27637 -83.998 -11.1719 -125.974
c-2.61914 -28.2197 -5.07227 -56.3613 -8.70215 -84.4775c-3.4082 -26.3984 -7.59863 -61.2891 -22.7598 -83.751c-8.54883 -12.6641 -28.0654 -21.9736 -39.7031 -7c-15.7305 20.2432 -18.084 56.0293 -19.8867 80.7598
c-1.99023 27.2871 -1.84277 54.5244 -1.63965 81.8643c0.337891 45.1826 2.35938 90.6006 5.44824 135.777c-11.3525 -0.481445 -22.7021 -1.00391 -34.0459 -1.59863c-3.48242 -47.4551 -5.88281 -94.9697 -8.99609 -142.453
c-1.69922 -25.9189 -2.69727 -51.8789 -4.37109 -77.7949c-1.6709 -25.8633 -1.62109 -53.6348 -8.79004 -78.6377c-6.94043 -24.208 -38.7773 -37.3604 -56.9863 -16.9922c-17.9492 20.0742 -17.9395 49.6895 -19.4199 75.0771
c-1.5459 26.5449 -1.53613 53.2656 -1.80859 79.8516c-0.529297 51.5322 1.76758 103.099 4.5498 154.553c-20.2998 -1.63672 -40.5928 -3.39551 -60.8672 -5.39844c-17.4209 -1.71777 -16.0566 22.4551 -0.623047 24.0322c20.9287 2.14062 41.8789 4.02441 62.8389 5.78613
c1.31738 23.3154 2.75684 46.7344 4.43066 70.1787c-18.3994 -1.05176 -36.7959 -2.21289 -55.1768 -3.62695c-20.2588 -1.55859 -18.7256 26.5859 -0.722656 27.9502c19.3359 1.46484 38.6807 2.66602 58.0352 3.74902c5.66699 70.0635 14.0596 140.102 29.0459 208.159
c4.98438 22.6396 27.3115 38.7744 49.6045 40.0234c19.5859 1.09863 42.8701 -13.3838 41.3457 -35.667c-4.76855 -69.7041 -13.2422 -139.136 -20.8213 -208.651c10.7178 0.234375 21.4355 0.40625 32.1533 0.522461c7.16602 83.1846 16.4756 166.694 34.4619 247.663
c5.23535 23.5635 28.3945 40.3545 51.6289 41.6562c20.1963 1.13281 44.873 -13.9346 43.0361 -37.1221c-6.68359 -84.3262 -18.6279 -168.493 -28.4346 -252.845c18.4346 -0.444336 36.8691 -1.00098 55.2969 -1.79883zM255.473 171.817
c1.61426 20.6592 3.21973 41.3994 4.91602 62.1807c-10.9336 -0.119141 -21.8672 -0.293945 -32.7979 -0.535156c-2.33789 -22.418 -4.5 -44.8516 -6.36816 -67.3096c11.3154 0.634766 22.6338 1.19824 33.9551 1.7207c0.100586 1.31445 0.191406 2.62891 0.294922 3.94336z
" />
    <glyph glyph-name="dollar" unicode="$" horiz-adv-x="395" 
d="M308.646 126.615c20.1367 -32.9199 39.1973 -72.6436 36.2373 -112.416c-2.50684 -33.7363 -23.5918 -66.1523 -56.9717 -76.0596c-18.4658 -5.47949 -38.1172 -4.98242 -56.8867 -0.504883c3.10449 -40.8584 6.46484 -81.6797 9.41211 -122.416
c1.54297 -21.3535 -34.0742 -29.9209 -37.376 -6.30762c-6.76855 48.4092 -10.4609 96.3643 -12.0166 144.83c-64.8154 37.5479 -88.6543 112.962 -95.1475 183.507c-1.33887 14.5508 23.9482 20.6904 25.6602 4.33105c4.64648 -44.3447 15.6523 -89.7783 43.0586 -125.911
c7.27539 -9.59082 15.9648 -18.5869 25.6807 -26.3916c-0.03125 2.75098 -0.0908203 5.49219 -0.109375 8.24609c-0.285156 41.2461 -0.225586 82.4922 0.0966797 123.742c-54.1768 55.8506 -115.609 113.356 -134.403 191.822
c-19.4736 81.2939 8.32324 189.056 99.6406 212.046c14.6104 3.67969 29.3398 4.6123 43.5908 3.16992c1.20801 42.4102 2.40918 84.8174 3.52051 127.216c0.366211 13.9814 25.0938 20.0869 24.8242 4.19043l-2.31738 -136.834
c41.5781 -13.4277 74.8008 -48.1152 81.4004 -94.7373c2.24707 -15.875 -28.5723 -26.6523 -31.7109 -9.26367c-4.74414 26.2852 -24.3174 54.1133 -50.3809 63.1689c-0.046875 -2.92285 -0.0966797 -5.8457 -0.146484 -8.77148
c-1.33008 -78.5908 -2.95703 -157.19 -3.48926 -235.797c4.77832 -5.72656 9.52539 -11.3252 14.1133 -16.7227c25.8721 -30.4473 52.8018 -59.9375 73.7207 -94.1367zM192.522 273.216c1.44238 70.3799 3.35156 140.756 5.34473 211.12
c-1.0918 -0.1875 -2.1875 -0.390625 -3.28906 -0.647461c-34.2803 -7.96094 -48.1523 -44.0469 -50.7744 -72.9082c-1.55859 -17.1484 0.976562 -32.9727 5.45117 -49.8701c4.49707 -16.9795 11.1621 -33.6328 19.0098 -49.3291
c6.16113 -12.3232 14.6914 -25.3379 24.2578 -38.3652zM292.561 -30.1416c6.61816 5.93652 5.11816 13.0918 2.38281 20.9023c-4.78418 13.6777 -12.8447 25.3682 -21.4473 36.8809c-15.8867 21.2627 -33.3887 41.0615 -51.457 60.3818
c1.42676 -40.1416 3.89551 -80.2988 6.77734 -120.432c11.1865 -3.87988 22.9082 -5.98242 34.8398 -5.70703c9.14941 0.212891 21.7227 1.53027 28.9043 7.97363z" />
    <glyph glyph-name="percent" unicode="%" horiz-adv-x="570" 
d="M455.004 491.032c24.5703 -8.81543 28.8896 -35.2578 19.4111 -56.8525c-47.5771 -108.422 -99.6221 -214.859 -146.979 -323.44c-23.501 -53.876 -46.3721 -108.046 -69.3594 -162.147c-11.7031 -27.54 -23.1748 -55.1465 -35.3408 -82.4893
c-12.5674 -28.2412 -24.083 -56.3164 -41.9795 -81.6943c-12.3232 -17.4766 -50.9102 -15.7588 -49.7832 10.4678c1.2832 29.8027 10.749 57.9473 19.2109 86.3447c8.43945 28.3105 18.002 56.1924 27.7617 84.0703c20.2832 57.9473 42.291 115.165 65.2998 172.079
c44.5977 110.33 91.5703 221.446 148.275 326.147c11.6846 21.5693 39.2471 36.2109 63.4834 27.5146zM174.068 200.783c-23.4375 -9.60645 -51.7998 -8.94629 -74.8369 1.64941c-29.3926 13.5117 -44.2256 40.8457 -48.9199 71.5908
c-3.30762 21.6699 20.5 41.9854 39.5322 45.6523c15.4111 20.9092 42.1377 37.4033 61.6826 43.1514c45.2607 13.3115 87.6748 -9.39746 90.9072 -58.4795c2.7627 -41.9785 -30.1445 -87.9062 -68.3652 -103.564zM120.021 312.9
c7.10938 -5.71387 11.9287 -14.3398 13.2676 -24.873c2.35352 -18.5537 18.8818 -38.168 39.4531 -39.5195c24.627 -1.61816 37.623 24.5957 37.5576 46.2373c-0.0966797 31.4453 -23.4316 48.3867 -53.9443 39.6621c-10.1797 -2.91016 -25.4414 -10.9805 -36.334 -21.5068z
M465.61 83.2783c43.6875 -11.2842 60.4658 -57.7783 52.3457 -98.8115c-9.27832 -46.9229 -54.8936 -86.1445 -103.641 -81.6445c-52.8311 4.875 -76.2529 55.334 -82.9463 101.509c-2.97266 20.5088 14.6172 36.6992 33.8896 41.4717
c17.4209 34.2461 64.5127 46.7314 100.352 37.4756zM465.293 -14.6416c12.4697 18.3154 7.66016 43.293 -11.9102 54.7363c-11.0459 6.46191 -39.2402 7.43555 -54.1475 -0.935547c3.45508 -3.17578 6.27734 -7.32812 8.13281 -12.626
c5.84863 -16.7168 9.59082 -43.3623 24.3828 -52.6309c13.2588 -8.30469 25.5938 -0.21875 33.542 11.4561z" />
    <glyph glyph-name="ampersand" unicode="&#x26;" horiz-adv-x="519" 
d="M451.207 94.0674c44.5039 -56.8232 -4.97852 -136.151 -51.4414 -174.222c-54.4795 -44.6543 -141.507 -72.8271 -208.938 -42.9238c-32.9541 14.6104 -59.0332 43.2178 -71.4502 76.9912c-14.585 39.666 -7.2002 84.1201 9.99512 121.618
c9.27539 20.2207 21.542 39.0146 35.8955 56.3945c-12.4199 1.30469 -24.6611 3.68262 -36.4619 7.68848c-62.1748 21.1064 -87.6904 87.3555 -76.0811 148.47c10.7744 56.7207 47.415 108.222 90.542 145.134c37.2656 31.8965 91.2451 54.9873 140.427 40.3018
c21.2412 -6.33984 40.8838 -18.1338 52.4834 -37.5635c12.6611 -21.207 15.333 -46.0566 16.9785 -70.2139c1.38672 -20.3428 -32.8721 -28.6914 -35.7012 -6.02637c-2.87598 23.0596 -6.68066 50.6279 -27.1992 65.1191c-17.1611 12.123 -39.9355 11.4473 -58.1572 1.90332
c-18.7129 -9.80371 -33.6084 -26.4043 -46.3193 -42.9297c-12.207 -15.8711 -21.9326 -36.0332 -26.9863 -53.0566c-6.2832 -21.1602 -10.8076 -44.7793 -6.2832 -63.8584c1.05176 -4.43457 2.7041 -8.68359 4.37793 -12.9082
c-3.30762 8.34277 4.02734 -6.59668 5.42285 -8.5332c1.17969 -1.65527 2.44434 -3.23828 3.74902 -4.79395c0.293945 -0.238281 0.669922 -0.547852 1.19238 -0.992188c1.7334 -1.45215 3.55762 -2.78516 5.47266 -3.99609
c-3.58008 1.47656 -2.66016 1.08496 2.7627 -1.17773c2.83203 -1.0791 5.7168 -1.98926 8.63965 -2.78125c0.882812 -0.131836 2.20996 -0.337891 4.09668 -0.641602c5.23828 -0.506836 10.4424 -1.03223 15.7021 -1.27637
c7.22852 -0.332031 14.501 -0.391602 21.7393 -0.178711c0.147461 0.0751953 10.1426 0.631836 11.2471 0.732422c29.0859 2.61914 57.3428 8.71191 85.8379 14.7822c22.2393 4.7373 43.5332 -9.18164 47.7861 -30.9395c4.5 -23.0215 -12.5664 -46.0244 -33.2822 -54.624
c-4.53711 -2.16895 -9.18066 -4.17188 -13.875 -6.07422c-45.6367 -20.8125 -92.9189 -52.0488 -119.136 -96.0771c-23.835 -40.0293 -21.6631 -89.2051 18.707 -117.331c40.3486 -28.1133 97.6797 -16.4072 139.333 3.20703
c41.4277 19.5078 92.9814 69.1025 69.8252 119.774c-10.1201 22.1484 -34.1963 36.3672 -57.8906 38.5859c-14.7168 1.37988 -29.4521 -1.0918 -43.249 -6.24609c-5.73242 -2.14062 -11.3867 -4.6377 -16.7881 -7.5293c-2.14648 -1.14844 -7.08789 -5.0791 -9.87012 -5.9082
c-3.95508 -1.18262 -3.26953 -5.56055 -4.55273 0.09375c3.79883 -16.7441 -24.9121 -30.125 -29.0586 -12.2227c-4.5752 19.752 11.2588 30.623 26.6045 39.6133c17.4395 10.2139 36.6406 17.8457 56.7549 20.6084c35.9639 4.94434 74.25 -6.75586 97.1494 -35.9922z" />
    <glyph glyph-name="quotesingle" unicode="'" horiz-adv-x="174" 
d="M94.0547 518.476c13.6777 0.766602 31.6318 -9.70508 29.9014 -25.7891c-2.57227 -23.8701 -7.45703 -46.7607 -12.9678 -70.0986c-4.69336 -19.8867 -8.71777 -42.0732 -21.2471 -58.6611c0.0341797 0.137695 0.0654297 0.27832 0.0996094 0.416016
c-0.813477 -0.982422 -1.7207 -1.9209 -2.70312 -2.80957c-23.0879 -20.8662 -34.1025 24.3945 -35.6924 37.8721c-3.51758 29.8213 -0.357422 61.082 6.73926 90.1279c3.99609 16.3506 19.4697 28.0254 35.8701 28.9424z" />
    <glyph glyph-name="quotesingle" unicode="&#x2019;" horiz-adv-x="174" 
d="M94.0547 518.476c13.6777 0.766602 31.6318 -9.70508 29.9014 -25.7891c-2.57227 -23.8701 -7.45703 -46.7607 -12.9678 -70.0986c-4.69336 -19.8867 -8.71777 -42.0732 -21.2471 -58.6611c0.0341797 0.137695 0.0654297 0.27832 0.0996094 0.416016
c-0.813477 -0.982422 -1.7207 -1.9209 -2.70312 -2.80957c-23.0879 -20.8662 -34.1025 24.3945 -35.6924 37.8721c-3.51758 29.8213 -0.357422 61.082 6.73926 90.1279c3.99609 16.3506 19.4697 28.0254 35.8701 28.9424z" />
    <glyph glyph-name="quotesingle" unicode="&#x2018;" horiz-adv-x="174" 
d="M94.0547 518.476c13.6777 0.766602 31.6318 -9.70508 29.9014 -25.7891c-2.57227 -23.8701 -7.45703 -46.7607 -12.9678 -70.0986c-4.69336 -19.8867 -8.71777 -42.0732 -21.2471 -58.6611c0.0341797 0.137695 0.0654297 0.27832 0.0996094 0.416016
c-0.813477 -0.982422 -1.7207 -1.9209 -2.70312 -2.80957c-23.0879 -20.8662 -34.1025 24.3945 -35.6924 37.8721c-3.51758 29.8213 -0.357422 61.082 6.73926 90.1279c3.99609 16.3506 19.4697 28.0254 35.8701 28.9424z" />
    <glyph glyph-name="parenleft" unicode="(" horiz-adv-x="456" 
d="M403.123 -130.498c8.23633 -15.3643 -0.503906 -33.1494 -13.2246 -42.9443c-69.3096 -53.3662 -164.197 -62.8232 -234.837 -6.83789c-60.2725 47.7646 -85.1094 119.652 -96.7686 193.08c-11.8008 74.3291 -10.7959 150.307 1.6582 224.47
c12.542 74.6885 37.6074 148.51 74.3447 214.847c28.958 52.2891 91.1426 138.797 157.401 87.7061c11.2998 -8.71191 -3.24805 -27.8223 -14.998 -22.002c-9.16211 4.53711 -9.95703 4.4209 -18.7598 -0.178711c-6.06152 -3.16699 -11.4531 -6.48438 -16.3564 -11.3945
c-10.3955 -10.4043 -18.876 -23.6787 -26.123 -36.3867c-16.3066 -28.5859 -28.6699 -59.6064 -38.752 -90.877c-36.5186 -113.25 -49.1953 -241.939 -24.3838 -358.278c5.4541 -25.5811 13.7148 -54.0039 24.583 -76.0811
c12.3828 -25.1436 27.8818 -43.625 48.0117 -58.3672c17.4707 -12.7891 36.5811 -20.9941 57.5098 -21.917c26.6016 -1.17383 53.7168 9.13672 79.4268 17.3662c15.7148 5.03223 32.7783 3.62988 41.2676 -12.2041z" />
    <glyph glyph-name="parenright" unicode=")" horiz-adv-x="377" 
d="M312.743 307.581c14.5605 -71.2744 18.3203 -143.098 10.1182 -215.38c-7.62305 -67.1631 -23.2471 -136.829 -60.6602 -194.135c-37.25 -57.0557 -93.4326 -105.443 -163.471 -113.063c-23.8701 -2.59766 -47.8994 9.875 -48.71 36.5107
c-0.835938 27.4961 22.2363 45.9678 46.4004 52.5645c-8.74609 -2.3877 5.2793 2.08398 5.76758 2.27441c2.20312 0.863281 4.37207 1.82422 6.55273 2.74121c5.49219 2.31543 10.9492 4.70898 16.2412 7.45312c0.472656 0.325195 1.39258 0.932617 2.83496 1.90234
c2.62891 1.76465 5.34863 3.3916 7.96191 5.18164c5.25391 3.59863 10.2295 7.5166 15.1924 11.4971c0.587891 0.472656 1.06348 0.844727 1.51758 1.20117c0.125 0.140625 0.206055 0.241211 0.362305 0.413086c2.1377 2.35645 4.50293 4.52539 6.67773 6.85938
c4.34375 4.66602 8.47754 9.5166 12.4014 14.5391c0.894531 1.14551 3.72949 4.86328 4.16113 5.31348c1.64941 2.46875 3.22363 5.03125 4.74121 7.53809c3.7832 6.24316 7.30664 12.6426 10.5957 19.1572c12.7734 25.29 18.9785 43.3486 26.3232 70.707
c7.55078 28.126 13.1396 56.8115 16.8037 85.6973c7.17188 56.5107 6.37695 114.404 -1.39941 170.796c-7.36328 53.416 -18.4443 107.996 -41.4189 157.138c-18.0615 38.6299 -58.6006 104.484 -109.147 67.1934c-15.3613 -11.3311 -29.9775 9.09961 -15.0225 20.6777
c54.4521 42.1543 128.812 -0.806641 165.818 -46.127c41.2969 -50.5742 66.3838 -115.143 79.3574 -178.65z" />
    <glyph glyph-name="asterisk" unicode="*" horiz-adv-x="239" 
d="M178.158 354.911c20.1426 -1.13867 10.4766 -29.8213 -6.95312 -28.71c-8.06445 0.512695 -16.1191 1.00098 -24.1738 1.4043c8.23633 -9.74121 16.4004 -19.542 24.4551 -29.4395c9.47852 -11.6475 -12.3984 -27.6094 -21.8359 -15.8652
c-4.88184 6.07422 -9.85059 12.0732 -14.7979 18.0879c-0.15918 -6.95898 -0.268555 -13.918 -0.28125 -20.8838c-0.0253906 -14.8105 -23.6953 -21.041 -26.0801 -4.39941c-1.53613 10.7305 -3.14453 21.7168 -4.55566 32.8252
c-7.49414 -8.74609 -14.7227 -17.7393 -21.6885 -26.9795c-10.1729 -13.499 -30.2061 -0.265625 -19.4199 14.126c8.43359 11.2529 17.3203 22.1016 26.5449 32.6377c-8.33301 -0.547852 -16.6631 -1.38379 -24.9873 -2.65723
c-19.9268 -3.05078 -18.1748 24.7617 -0.713867 27.5596c8.04199 1.28906 16.0996 2.21484 24.167 2.87793c-10.1133 11.4307 -20.3086 22.79 -30.6855 33.9961c-9.8291 10.6113 11.2275 25.8975 21.1221 15.3457c7.48828 -7.98535 14.8916 -16.0459 22.248 -24.1504
c0.475586 6.58105 1.21094 13.1113 2.33105 19.5449c3.27344 18.8164 37.3887 24.4111 38.1143 1.82422c0.25 -7.76953 -0.09375 -15.502 -0.694336 -23.2158c7.58789 6.71582 15.3203 13.2812 23.2744 19.6113c14.0566 11.1836 28.0947 -8.42773 14.1445 -19.4707
c-9.21289 -7.28809 -18.1377 -14.873 -26.7959 -22.7207c9.08691 -0.360352 18.1777 -0.835938 27.2617 -1.34863z" />
    <glyph glyph-name="plus" unicode="+" horiz-adv-x="273" 
d="M212.767 153.771c19.2637 0.272461 9.83691 -27.2803 -6.66992 -27.5146c-10.5234 -0.150391 -21.0469 -0.378906 -31.5703 -0.641602c-0.21875 -18.9072 -0.575195 -37.9365 -1.62988 -56.7998c-1.2832 -22.9375 -0.638672 -42.5332 -14.2041 -62.085
c-8.55566 -12.332 -29.0898 -15.8809 -41.2061 -7.44141c-17.2607 12.0225 -19.9609 36.3486 -23.6348 55.7031c-3.80859 20.0713 -6.38379 40.9336 -7.28809 61.3389c-0.0849609 1.88965 -0.134766 3.77051 -0.207031 5.65723
c-7.62891 -0.431641 -15.2549 -0.844727 -22.8779 -1.3457c-18.5098 -1.21387 -17.1982 24.1797 -0.663086 25.6006c7.62305 0.654297 15.249 1.18945 22.8721 1.76172c-0.30957 31.0947 1.11719 61.9805 5.11621 93.0508c2.83789 22.0459 28.0186 37.7988 48.252 38.9316
c19.5293 1.0957 41.0869 -13.0078 40.2197 -34.6934c-1.2334 -30.8262 -3.17383 -61.5801 -4.15625 -92.3994c12.542 0.407227 25.0898 0.698242 37.6475 0.876953z" />
    <glyph glyph-name="comma" unicode="," horiz-adv-x="197" 
d="M118.73 54.2168c17.8555 -1.44238 32.6113 -18.9697 26.9473 -37.0879c-8.66504 -27.7158 -20.4688 -53.4502 -35.6113 -78.1836c-8.31152 -13.5781 -22.8496 -22.5811 -39.0342 -19.3516c-13.3027 2.65332 -25.0156 17.5264 -19.7363 31.5957
c8.7959 23.4502 16.3281 47.4268 23.8008 71.3242c5.82324 18.6221 23.2656 33.3486 43.6338 31.7031z" />
    <glyph glyph-name="hyphen" unicode="-" horiz-adv-x="312" 
d="M228.588 206.761c16.1719 2.68164 32.541 -7.43457 33.0664 -24.7861c0.544922 -17.8242 -14.8975 -32.416 -31.498 -35.6865c-28.0225 -5.5166 -56.8613 -5.09082 -85.3096 -5.93555c-26.3545 -0.782227 -52.5869 -4.35938 -78.9072 -4.54102
c-21.376 -0.147461 -18.8662 26.8643 -6.44629 36.4902c45.7842 35.4795 115.016 25.4971 169.095 34.459z" />
    <glyph glyph-name="period" unicode="." horiz-adv-x="175" 
d="M123.912 11.2842c1.83691 -10.9307 0.671875 -21.501 -1.47168 -32.3408c-3.5459 -17.9121 -22.0332 -31.0234 -39.4727 -31.8467c-7.72266 -0.366211 -14.7256 1.39551 -21.1973 5.6543c-6.32715 4.16504 -12.4697 14.9395 -11.7061 22.7285
c0.826172 8.4209 1.04492 16.7822 2.10547 25.2031c-0.328125 -2.98828 -0.65625 -5.97363 -0.984375 -8.96191c0.269531 2.46582 0.479492 4.92578 0.629883 7.39746c1.22363 20.2432 15.2109 35.7451 35.1719 39.8477c8.20508 1.68652 18.6348 -0.363281 25.4189 -5.3418
c7.9043 -5.79883 9.97559 -13.2402 11.5059 -22.3398z" />
    <glyph glyph-name="slash" unicode="/" horiz-adv-x="438" 
d="M365.061 487.831c22.3047 -8.00488 27.5479 -32.9971 18.0283 -52.793c-50.6182 -105.265 -103.136 -209.54 -151.213 -316.031c-24.248 -53.71 -47.8613 -107.745 -71.1367 -161.884c-22.6709 -52.7305 -42.6162 -109.607 -78.3486 -155.141
c-8.72754 -11.1182 -32.2471 -10.4766 -32.3848 6.80957c-0.462891 57.4219 24.4238 115.084 43.6875 168.3c20.0898 55.5029 41.5156 110.424 64.0684 164.97c44.8984 108.594 92.5098 216.746 148.345 320.214c10.8174 20.0488 36.4707 33.623 58.9541 25.5557z" />
    <glyph glyph-name="zero" unicode="0" horiz-adv-x="426" 
d="M72.5957 -4.10742c-31.6836 86.6113 -25.124 179.991 -10.1318 269.788c-12.2324 46.0654 13.3955 98.8555 41.3682 134.395c29.0859 36.9658 77.1787 74.5605 127.077 67.4883c41.6221 -5.89844 81.5166 -39.7158 100.739 -76.0371
c24.0508 -45.4521 36.2676 -95.8076 41.8564 -146.673c5.66699 -51.5762 2.22461 -104.636 -7.00977 -155.627c-8.94922 -49.4072 -26.5762 -98.6641 -57.4463 -138.746c-30.0527 -39.0215 -79.0781 -67.0723 -129.327 -58.0879
c-54.7119 9.78223 -88.9268 53.7451 -107.126 103.5zM123.544 382.785c-6.50586 -8.37988 -13.0518 -18.2275 -18.7568 -28.8701c7.74805 3.22656 16.0312 4.79785 23.958 4.15625c26.0039 -2.10254 38.8184 -24.2949 35.1855 -48.4307
c-13.3555 -88.7451 -31.4082 -183.852 -5.88281 -272.196c7.88281 -27.2803 22.7373 -62.8193 49.9365 -68.9805c6.34277 -1.43945 8.30176 -0.625977 12.6328 0.481445c-1.78027 -0.454102 -5.56055 -2.54785 2.63477 0.978516
c8.72754 3.75488 6.44336 2.97266 14.0723 8.51758c7.67578 5.5791 19.7041 20.6309 26.6387 32.3652c39.6729 67.1221 47.6865 152.7 45.7402 229.135c-1.02637 40.2549 -5.72656 81.7578 -17.5928 120.351c-11.2871 36.7188 -29.584 75.9033 -72.8867 79.6865
c-38.083 3.32617 -73.9346 -29.1865 -95.6797 -57.1934z" />
    <glyph glyph-name="one" unicode="1" horiz-adv-x="339" 
d="M78.1689 411.599c-8.7959 -15.3516 -35.2744 -9.31641 -26.3623 9.32129c10.1416 21.21 24.7578 39.7354 43.8213 53.626c17.2764 12.5918 41.6846 26.3789 63.8145 21.4102c42.7051 -9.58789 51.7676 -72.1689 56.4863 -107.436
c6.8252 -51.0186 8.97168 -102.52 9.81055 -153.936c1.69336 -103.853 -1.27344 -207.943 -2.625 -311.8c16.2998 -1.84277 32.3555 -1.01074 47.751 6.57812c18.0654 8.90625 24.8867 -17.2764 8.25488 -25.3594c-19.8076 -9.62207 -40.5732 -10.6387 -61.4043 -8.24512
c-8.32031 -17.624 -25.5283 -30.4541 -45.3457 -34.5283c-25.9473 -5.3291 -52.1982 12.9678 -53.209 39.8887c-0.0625 1.65234 -0.0751953 3.30762 -0.12793 4.95996c-5.41406 -1.30762 -10.7148 -3.09082 -15.7812 -5.43164
c-3.98047 -1.83691 -7.7041 -4.02441 -11.4277 -6.33984c-0.685547 -0.428711 -3.04785 -2.42871 -4.71582 -3.23633c-0.529297 -1.6582 -1.39258 -3.20703 -2.65332 -4.44336c-5.51074 -5.39453 -9.91699 -6.93457 -17.4238 -5.30762
c-4.06152 0.878906 -6.59961 5.47266 -6.74707 9.28711c-0.603516 15.5615 18.6885 26.1289 30.6582 32.2715c8.76172 4.49707 18.0645 7.73242 27.624 9.83496c-0.49707 105.408 15.168 210.772 24.7148 315.523c5.15723 56.5801 12.1631 114.089 11.084 170.987
c-0.228516 12.001 0.234375 25.666 -2.07227 37.4258c-2.86914 14.6104 -18.0615 6.57715 -27.2803 1.55176c-19.498 -10.6299 -35.8574 -27.4277 -46.8438 -46.6035z" />
    <glyph glyph-name="two" unicode="2" horiz-adv-x="461" 
d="M64.9961 -116.947c-8.63672 8.39258 -11.1084 16.3994 -13.4521 27.8398c-9.25293 45.1553 24.4453 80.5879 65.1064 95.1172c33.0664 11.8164 67.6445 9.30078 100.968 1.07129c0.841797 1.33887 1.68945 2.67188 2.5127 4.02051
c7.16895 11.7471 13.6494 23.8916 19.958 36.1211c12.4609 24.1572 21.2822 46.0771 28.8545 70.4385c16.0283 51.5605 25.8604 105.527 30.4727 159.291c4.68164 54.543 2.27832 111.783 -17.7705 163.35c-4.27734 11.0088 -10.1729 22.915 -21.8945 27.1807
c-12.7139 4.62207 -28.5068 -0.52832 -39.7217 -7.23438c-19.8555 -11.875 -33.3828 -33.4766 -35.6455 -56.4512c-1.50781 -15.2861 -29.1826 -22.3584 -27.7529 -4.68457c3.66699 45.3203 35.501 85.8281 80.5928 96.3457
c57.5938 13.4365 93.373 -33.6553 113.497 -80.6904c19.5762 -45.7617 24.627 -100.276 25.0586 -149.587c0.444336 -50.8467 -4.6748 -102.229 -16.4814 -151.705c-10.417 -43.6367 -27.0674 -92.4375 -51.71 -135.705c29.8877 -8.90625 60.3506 -13.9658 91.7461 -5.83594
c16.707 4.32422 15.0576 -19.877 0.613281 -23.6416c-36.4873 -9.50977 -71.5312 -3.06055 -106.013 7.43457c-30.416 -45.377 -70.9678 -81.7197 -124.108 -94.4678c-24.6016 -5.89844 -52.6396 -5.89258 -76.3408 3.68945
c-10.6084 4.28711 -20.2969 10.1455 -28.4893 18.1035zM181.31 -36.9395c1.6084 1.41113 2.03125 1.97754 0 0zM133.451 -15.0596c-17.9551 -5.25098 -52.2861 -26 -42.3164 -48.9092c8.06055 -3.08887 16.3936 -5.99902 25.002 -5.5918
c9.78516 0.459961 22.1768 4.69727 32.4473 9.61621c1.50195 0.719727 2.17188 0.976562 2.36914 0.979492c0.738281 0.488281 1.58984 1.05176 2.72852 1.79004c2.24023 1.45508 4.4209 2.98535 6.60156 4.52832c6.49902 4.59375 12.9453 9.23438 19.1914 14.1719
c0.654297 0.516602 1.21777 0.995117 1.70898 1.42383c2.11816 2.09668 4.25195 4.18652 6.32617 6.32422c4.71289 4.85352 9.2627 9.84473 13.5713 15.0547c0.19043 0.234375 0.365234 0.478516 0.555664 0.712891c-22.5176 5.00977 -45.5146 6.52734 -68.1855 -0.100586z
" />
    <glyph glyph-name="three" unicode="3" horiz-adv-x="420" 
d="M65.9307 355.162c-36.2588 26.0723 -2.3457 80.4639 19.9873 103.864c26.4668 27.7002 62.6504 47.0234 100.853 51.7266c19.4102 2.3877 40.1973 1.4209 58.5781 -5.7666c18.1621 -7.10352 29.9814 -19.6045 41.8096 -34.5469
c30.0439 -37.958 17.583 -87.916 -0.794922 -127.754c-3.15137 -6.83398 -6.72461 -13.7773 -10.6826 -20.6777c26.9863 -14.4004 50.1738 -37.8291 65.1445 -66.4648c31.374 -60.0127 36.043 -129.726 20.5283 -195.164
c-13.5342 -57.0898 -43.4902 -116.836 -93.0166 -150.825c-56.1729 -38.5518 -133.058 -48.7754 -181.311 7.17871c-44.6699 51.8018 -31.2207 124.988 -7.6416 182.588c8.25488 20.1621 50.1494 23.8135 48.9824 -3.73926
c-1.83691 -43.3867 -13.8496 -100.583 25.4502 -129.381c11.6689 -8.5459 24.7803 -10.7959 38.3457 -5.77051c3.9082 1.44922 7.66992 3.2168 11.4121 5.04395c3.60156 2.25293 7.10352 4.65332 10.4863 7.22852c1.80273 1.36719 3.50195 2.90039 5.32617 4.23047
c-0.597656 -0.438477 -5.64844 -5.42676 -1.39258 -1.3584c3.79883 3.63281 7.59766 7.27246 11.1709 11.1279c3.58594 3.87109 6.97461 7.92383 10.1943 12.1016c1.03906 1.35156 2.04688 2.72559 3.05469 4.09961c0.0683594 0.116211 0.125 0.207031 0.203125 0.334961
c5.16016 8.41797 9.91309 17.0078 14.0186 26.001c1.25781 2.75391 2.43164 5.53906 3.61719 8.32422c0.0371094 0.0878906 0.491211 1.2832 0.910156 2.38477c0.410156 1.22656 1.06445 3.12891 1.0957 3.23828c0.647461 2.1377 1.36719 4.25586 2.01758 6.39355
c3.36426 11.0811 6.07422 22.3711 8.08984 33.7744c3.42383 19.3545 3.86816 42.0977 1.33301 63.7617c-1.00488 8.58691 -3.34863 18.5977 -6.30859 28.2949c-1.84277 6.03613 -3.93652 11.9912 -6.31738 17.8369c-0.572266 1.4082 -5.18457 11.6064 -3.29102 7.9043
c-9.65723 18.876 -19.3672 31.4805 -36.3711 41.3154c0.200195 -0.178711 -3.1416 1.51758 -3.92676 1.80273c-2.2002 0.797852 -4.39062 1.56445 -6.61523 2.29004c-0.735352 0.238281 -1.24805 0.410156 -1.62012 0.541992
c-1.7832 0.231445 -3.58203 0.353516 -5.35938 0.582031c-0.03125 0.00292969 -0.0439453 0.00585938 -0.0722656 0.00878906c-9.07812 -4.64355 -18.6631 -8.08301 -28.7334 -9.94141c-19.1572 -3.53613 -40.4951 6.18945 -46.8193 25.334
c-6.40527 19.3945 4.375 42.5635 20.6748 53.6006c13.8594 9.3877 28.3008 15.3584 42.833 18.4346c6.6123 5.20703 10.665 8.89062 15.8467 14.2295c12.542 12.917 24.1738 27.0576 33.127 42.7158c9.35059 16.3564 18.8887 32.7754 18.2285 52.2012
c-0.685547 20.2178 -15.415 31.583 -33.7676 36.9619c-34.8096 10.2041 -74.46 -2.52539 -102.729 -23.4941c-15.7588 -11.6875 -64.8623 -61.8965 -38.793 -82.0107c12.6924 -9.79492 -5.71094 -29.2246 -17.7549 -20.5625zM203.384 -34.6592
c-1.42383 -0.826172 -4.75977 -2.9541 -0.550781 -0.356445c0.1875 0.112305 0.366211 0.240234 0.550781 0.356445zM196.844 247.188c0.572266 0.0810547 0.913086 0.078125 1.07227 0.00585938c0.119141 0.0878906 0.272461 0.191406 0.410156 0.285156
c-0.49707 -0.0810547 -0.988281 -0.19043 -1.48242 -0.291016zM180.108 326.545c-1.2207 -0.337891 -2.14258 -0.750977 -1.9082 -1.21094c0.03125 -0.0625 0.788086 0.428711 1.9082 1.21094z" />
    <glyph glyph-name="four" unicode="4" horiz-adv-x="480" 
d="M81.7676 141.85c-23.3281 4.14355 -37.4941 23.9355 -29.54 47.1328c8.00098 23.3193 30.9512 36.8379 52.0645 46.6953c23.0967 10.7861 47.3262 19.0908 71.8906 25.9004c8.52441 21.5352 15.2275 43.8936 21.2979 66.1396
c16.8418 61.7178 25.0996 125.278 18.8564 189.161c-1.42383 14.5508 23.8232 20.665 25.6602 4.33008c7.82031 -69.6006 -1.38867 -139.78 -19.8857 -207.04c-3.98047 -14.4756 -8.28027 -29.502 -13.2617 -44.46c27.791 6.16113 55.9326 10.5801 84.1895 14.2041
c-0.914062 15.8809 -1.63965 31.7715 -2.08984 47.665c-1.62109 57.1025 -2.25977 113.757 7.91992 170.171c8.58008 47.5391 87.042 58.1406 93.0127 4.45215c5.57031 -50.0898 3.72363 -100.308 5.20703 -150.616c1.42969 -48.5625 3.62012 -97.0908 7.5625 -145.521
c4.02441 -49.4326 9.41309 -98.8623 15.4746 -148.082c2.97559 -24.167 5.63574 -48.3398 8.37109 -72.5381c1.48633 -13.1553 2.0625 -26.6797 1.00195 -39.8945c-0.682617 -8.48047 -0.914062 -16.1816 -4.75977 -24.0889
c-1.94043 -3.99023 -12.8584 -20.7471 -3.87793 -5.95508c-7.33789 -12.085 -20.5938 -20.499 -35.1357 -19.3164c-18.96 1.5459 -28.0254 16.9639 -35.0908 32.4219c-10.7148 23.4443 -16.7266 49.3262 -22.1436 74.4473c-11.6875 54.1982 -19.8516 109.213 -25.8721 164.3
c-3.06055 27.9844 -5.69238 56.0508 -7.73535 84.1543c-32.9756 -4.30566 -65.792 -9.70312 -98.0576 -17.7363c-11.9414 -27.9092 -27.5625 -53.9443 -49.8994 -73.6709c-17.5264 -15.4775 -41.374 -26.4795 -65.1592 -22.2549zM104.407 204.228
c-7.75098 -4.27441 -29.5107 -17.1553 -21.0742 -28.7275c6.99023 -9.59375 25.5596 -3.43848 33.4824 0.848633c19.7295 10.6709 33.4072 31.0986 43.8838 51.2324c-19.4512 -6.18359 -38.7148 -13.6562 -56.292 -23.3535z" />
    <glyph glyph-name="five" unicode="5" horiz-adv-x="436" 
d="M80.9912 187.555c7.8916 15.4238 32.5898 9.11328 25.2578 -8.93262c-24.4365 -60.1221 -34.0684 -181.477 51.9951 -197.874c30.5664 -5.82324 58.8145 7.1377 81.9678 24.4863c9.24414 6.92773 7.0127 4.81543 14.3535 12.5254
c5.02832 5.28223 9.78125 10.9053 14.1211 16.7793c0.610352 0.891602 2.21875 3.18555 2.4248 3.52344c2.4375 4.02734 4.7998 8.08008 6.96484 12.2637c1.44531 2.79395 2.71582 5.66016 4.11133 8.47656c0.597656 1.21094 1.04492 2.09668 1.42676 2.84473
c0.103516 0.353516 0.27832 0.878906 0.59082 1.73047c21.0752 57.3271 6.64648 121.561 -41.0273 157.697c-23.8418 18.0713 -49.4482 27.0674 -79.2891 26.5547c-18.9854 -0.328125 -43.1934 -5.68555 -63.2988 1.08008
c-27.0518 9.10254 -35.1748 36.7773 -28.4473 62.2363c8.47363 32.0586 23.3311 62.9883 34.3486 94.2432c11.1182 31.5459 19.6426 64.0146 31.1113 95.3662c0.597656 1.64258 1.27637 3.24805 2.02734 4.80664c-18.5498 -0.854492 -36.415 1.73633 -50.6279 12.0342
c-13.3584 9.67871 5.43262 28.6357 18.04 20.8906c19.792 -12.1572 54.0449 -2.06836 75.3828 1.47754c25.5498 4.25293 50.9277 9.58203 76.6279 12.9082c35.6172 4.60938 94.9004 9.02832 98.8311 -40.5986c1.30176 -16.4502 -27.5029 -23.4404 -29.0078 -4.89355
c-2.02148 24.9307 -37.2227 21.5137 -54.293 19.8682c-22.8154 -2.19629 -45.3613 -6.45508 -67.8887 -10.5703c-3.36719 -0.616211 -6.875 -1.31738 -10.4922 -2.0625c0.563477 -1.14551 1.05176 -2.34082 1.39551 -3.63281
c9.39746 -35.3232 0.388672 -74.6982 -8.74512 -109.311c-4.59375 -17.417 -9.65723 -34.7061 -14.6416 -52.0137c-1.37695 -4.78418 -2.70703 -9.57812 -4.06152 -14.3691c7.46289 0.40332 14.9385 0.663086 22.3984 0.319336
c19.0137 -0.878906 38.4805 -4.91895 56.4355 -11.1777c36.2588 -12.6328 68.6523 -35.708 92.6602 -65.6299c42.7393 -53.2598 55.3594 -130.893 33.3359 -195.299c-23.2998 -68.1299 -80.9873 -123.684 -150.362 -143.031
c-63.0732 -17.5898 -142.6 2.79395 -164.145 71.3213c-20.252 64.4092 -9.91309 136.491 20.5186 195.962zM140.39 334.217c-4.19043 -0.272461 -3.95215 -0.444336 0.688477 -0.506836c-0.231445 0.171875 -0.459961 0.337891 -0.688477 0.506836z" />
    <glyph glyph-name="six" unicode="6" horiz-adv-x="347" 
d="M108.693 -52.3447c-18.0527 14.873 -30.1602 34.3262 -38.9756 55.7422c-17.2393 41.8789 -21.0098 92.2031 -19.3701 137.102c3.39551 92.9033 29.1709 189.402 74.1162 270.919c21.7139 39.3818 48.0654 77.6553 83.7324 105.659
c16.5381 12.9834 36.668 25.2217 58.6729 20.0898c15.584 -3.62988 26.417 -13.3145 29.0234 -29.1484c2.25 -13.6719 -19.3506 -19.1445 -25.1494 -7.34766c-5.05371 10.2822 -12.0479 -4.85059 -14.2822 -7.86426c-4.76562 -6.42383 -9.22461 -12.8955 -13.6836 -19.5361
c-9.47852 -14.1162 -19.0352 -28.0039 -28.0693 -42.4238c-18.3525 -29.3018 -32.9883 -60.8604 -45.3174 -93.126c-23.3438 -61.0947 -37.582 -126.806 -38.4209 -192.263c-0.0527344 -4.25586 -0.0556641 -8.50488 -0.00292969 -12.751
c21.0664 9.65039 44.1631 14.5293 67.6797 12.4297c38.9844 -3.48242 74.6855 -28.2754 90.3633 -64.3301c32.209 -74.0781 -43.1084 -160.335 -119.155 -154.255c-21.2412 1.69922 -44.501 7.37598 -61.1611 21.1035zM255.764 79.5107
c-29.8496 44.0029 -81.7158 45.0381 -123.41 23.2021c1.53613 -19.3789 4.38379 -38.6201 8.99316 -57.6494c3.37988 -13.9531 8.07422 -28.4541 15.0996 -41.0059c5.50781 -9.83789 14.0566 -24.0225 22.8027 -31.2852c22.8555 -18.9854 55.0615 2.39941 69.7812 21.0312
c20.1143 25.4629 25.4805 58.0664 6.7334 85.707z" />
    <glyph glyph-name="seven" unicode="7" horiz-adv-x="381" 
d="M60.793 482.006c-19.3047 2.08984 -9.99707 29.0938 6.67188 27.5225c51.2852 -4.85352 110.847 43.2988 159.804 13.9531c20.4023 -12.2295 34.1807 -40.3232 40.9053 -62.2432c8.60254 -28.0439 9.1875 -59.6934 8.07031 -88.7822
c-1.52734 -39.7412 -3.85254 -79.373 -6.99121 -118.958c22.6152 2.02734 45.9658 -0.375977 59.3906 -18.4346c11.3369 -15.249 -16.3506 -35.3389 -27.5312 -20.0029c-7.11621 9.75684 -22.1963 9.16211 -34.4688 7.83203
c-1.21094 -13.4336 -2.49121 -26.8643 -3.88965 -40.2949c-6.98438 -67.1318 -13.0986 -134.576 -24.9082 -201.051c-4.3125 -24.2607 -30.1787 -42.0098 -53.4316 -43.1084c-20.6152 -0.973633 -46.7979 14.3037 -44.5352 38.418
c5.75781 61.3896 15.8281 122.175 26.0039 182.97c2.51562 15.0293 5.07227 30.0469 7.70703 45.0488c-18.7314 -3.8457 -37.7324 -6.4209 -56.3604 -4.30273c-17.0322 1.93652 -11.3154 24.7676 2.90039 26.5547c20.0615 2.51855 39.6846 6.06738 59.2607 9.91309
c6.12109 33.1729 12.7305 66.249 20.2686 99.165c6.25879 27.3271 13.7217 54.6826 18.1279 82.3799c3.24219 20.3652 11.8096 62.9414 -7.80762 77.7178c-19.5361 14.7168 -51.3232 2.78516 -72.167 -3.08496c-25.4346 -7.16602 -50.3242 -14.1064 -77.0195 -11.2119z" />
    <glyph glyph-name="eight" unicode="8" horiz-adv-x="373" 
d="M131.738 198.694c-34.0244 36.8877 -65.4775 78.8604 -76.9619 128.743c-12.1699 52.8594 -1.25488 111.551 34.7998 153.048c29.8213 34.3213 74.9102 55.3936 120.835 50.7217c49.2041 -5.00391 73.9004 -44.1533 85.4062 -88.4004
c12.7295 -48.9473 8.55859 -101.071 0.685547 -150.454c-5.5166 -34.5996 -13.7842 -68.6299 -22.9971 -102.413c26.7803 -36.0146 47.2959 -74.9521 49.6523 -121.612c2.46875 -48.8633 -24.1738 -93.8652 -64.5498 -119.766
c-35.8955 -23.0244 -81.542 -28.8076 -116.84 -0.847656c-38.4893 30.4912 -35.5508 78.5879 -25.1025 122.021c8.42676 35.0439 23.6377 68.6768 46.2773 96.6494c-10.5488 10.6396 -21.0635 21.3135 -31.2051 32.3096zM245.209 -24.8076
c30.3125 32.2158 10.7959 83.1152 -11.4873 113.134c-15.7432 21.21 -33.749 40.4512 -52.2207 59.292c-24.6055 -34.3555 -38.7871 -77.3389 -41.0146 -118.938c-1.45215 -27.1553 9.3623 -51.3564 34.4307 -63.7012c21.8105 -10.7393 53.0156 -8.14551 70.292 10.2139z
M141.516 440.439c-14.4824 -36.6836 3.44531 -85.3145 22.4805 -115.296c23.4473 -36.9248 56.21 -70.5049 85.9404 -105.712c8.24902 33.3516 15.0928 67.0156 18.6504 101.171c3.06348 29.4209 4.16797 59.6738 -0.397461 89.001
c-3.88379 24.9492 -12.1572 54.3076 -31.9805 71.5059c-32.541 28.2324 -81.917 -8.30762 -94.6934 -40.6699z" />
    <glyph glyph-name="nine" unicode="9" horiz-adv-x="407" 
d="M197.707 291.136c-31.2764 -31.4365 -88.1104 -63.3682 -126.644 -23.7207c-34.6309 35.623 -19.6445 103.384 -3.91699 144.083c17.292 44.751 49.7793 90.2158 97.8193 104.507c40.1797 11.9541 88.9395 -5.25 101.44 -48.0293
c4.41895 -15.1201 -20.9219 -27.3115 -26.6484 -11.208c-7.56641 21.2695 -29.1768 32.7412 -51 33.624c-23.623 0.958008 -44.6895 -13.4336 -59.8477 -30.3535c-32.8574 -36.6719 -56.2764 -100.364 -43.9219 -149.634
c7.18457 -28.6484 34.2646 -37.7637 59.8896 -25.0029c23.084 11.4971 41.1963 33.5957 55.9629 54.1484c15.2803 21.2666 28.1387 44.5605 40.2236 67.7607c10.5234 20.1992 16.9316 49.708 37.5439 62.0684c9.18457 5.50781 22.1738 7.69824 29.4961 -2.25
c27.5156 -37.376 32.2158 -91.8311 38.8311 -136.436c7.14355 -48.165 10.2822 -97.4785 10.3828 -146.142c0.103516 -49.4014 -3.04102 -100.032 -14.9629 -148.116c-12.3633 -49.8584 -32.4658 -99.9668 -73.418 -132.974
c-17.3799 -14.0068 -44.7793 -14.6572 -60.873 0.938477c-16.5752 16.0654 -12.4102 41.8975 1.55273 58.2822c14.4883 17.001 18.7754 22.1201 28.1035 42.8389c6.86914 15.249 11.6602 32.2031 16.5166 52.1924c9.91309 40.8145 14.4727 82.0361 16.0752 123.949
c1.74023 45.4521 1.44629 90.8447 1.27734 136.312c-0.0849609 22.4238 -0.523438 44.832 -0.720703 67.25c-0.046875 5.16602 0.1875 10.4824 0.459961 15.8555c-7.59473 -13.3242 -14.5889 -26.9775 -22.3584 -40.2109
c-14.5889 -24.8457 -30.8701 -49.2383 -51.2637 -69.7344z" />
    <glyph glyph-name="colon" unicode=":" horiz-adv-x="172" 
d="M84.1777 188.095c-15.4551 -3.17578 -35.1982 8.16113 -34.1377 25.5908c1.07617 17.7744 2.08691 41.9004 15.3359 55.4248c5.53906 5.65723 11.7041 9.4873 19.458 11.0801c5.41016 1.11133 15.0986 0.0478516 19.3604 -4.06738
c4.9502 -4.78125 8.3584 -8.43262 10.167 -15.2197c1.21094 -4.54688 2.01172 -9.58496 2.3877 -14.207c0.591797 -7.26953 0.391602 -14.4951 -0.0498047 -21.7607c-1.13574 -18.7158 -14.0654 -33.0479 -32.5215 -36.8408zM120.145 86.9326
c2.24023 -7.14062 2.40137 -12.8076 1.44336 -20.1211c-0.225586 -1.25488 -0.388672 -2.51953 -0.570312 -3.78418c-0.015625 -0.228516 -0.0527344 -0.638672 -0.118164 -1.28906c-0.28125 -3.28223 -0.631836 -6.55859 -1.04785 -9.8291
c-0.0693359 -0.503906 -0.128906 -0.932617 -0.181641 -1.31152c-0.269531 -3.82031 -0.344727 -7.62891 -0.300781 -11.459c0.225586 -19.2949 -15.7148 -34.5215 -33.7451 -38.2295c-16.71 -3.43262 -35.5576 8.53711 -35.4258 26.5557
c0.078125 10.6924 0.556641 22.1895 3.5293 32.5186c4.28418 14.8828 10.5146 26.3135 22.4932 36.3926c13.1895 11.0967 38.2354 8.68066 43.9238 -9.44336z" />
    <glyph glyph-name="semicolon" unicode=";" horiz-adv-x="197" 
d="M103.699 170.277c-13.0801 -0.732422 -23.123 7.93945 -24.2686 20.9355c-0.844727 9.5625 0.131836 18.4561 1.13672 27.9629c1.10449 10.4766 1.31445 21.0127 3.7334 31.3047c6.54297 27.8467 49.1006 33.6572 54.2109 2.59668
c2.99805 -18.2246 0.404297 -42.0791 -5.69434 -59.3086c-4.6377 -13.1025 -14.8018 -22.6904 -29.1182 -23.4912zM116.663 111.292c19.082 -1.54297 34.5518 -20.1465 28.6562 -39.4443c-12.0977 -39.6064 -23.3223 -80.9746 -43.0459 -117.521
c-4.33105 -8.0293 -12.708 -13.7617 -21.7832 -14.7227c-12.0322 -1.26758 -20.7852 3.14453 -26.0928 14.1191c-8.59277 17.7676 -2.46582 43.9717 0.560547 62.4531c3.42676 20.9219 8.62109 41.2871 15.3018 61.4014c6.55273 19.7295 24.4521 35.4883 46.4033 33.7139z
" />
    <glyph glyph-name="less" unicode="&#x3c;" horiz-adv-x="300" 
d="M227.616 141.231c20.1963 -7.03125 26.2812 -28.3848 19.707 -46.9189c-7.01855 -19.7705 -28.6514 -34.1211 -49.7549 -32.4404c-33.8359 2.69727 -67.707 12.1699 -100.62 20.3594c-35.4639 8.82422 -59.3027 39.9258 -40.1514 75.8555
c8.29883 15.5771 23.1279 25.8594 36.7529 36.4082c12.3418 9.55664 24.8779 18.7256 37.7832 27.5098c21.5977 14.7012 58.7197 47.4014 85.6846 30.3564c14.8047 -9.35645 5.62305 -30.7197 -2.35059 -40.9863c-8.10156 -10.4326 -18.3408 -19.4414 -27.7754 -28.6035
c-8.53613 -8.28906 -16.916 -16.7344 -25.415 -25.0615c2.45996 -0.563477 4.91602 -1.14844 7.37891 -1.70508c19.7803 -4.47461 39.5879 -8.09863 58.7607 -14.7734zM132.574 129.043c0.0126953 0.0566406 0.0244141 0.110352 0.0400391 0.163086
c-2.86621 -3.03223 -2.90332 -3.11035 -0.0400391 -0.163086z" />
    <glyph glyph-name="equal" unicode="=" horiz-adv-x="326" 
d="M64.002 126.387c-22.2832 10.2012 -16.041 40.3564 5.19043 48.3672c24.4961 9.24414 50.3252 13.0811 76.3164 15.7217c27.6973 2.81641 54.499 4.48438 81.6455 -2.4248c17.834 -4.53711 22.1895 -25.4463 16.9199 -40.2881
c-6.37695 -17.9551 -24.3359 -27.9531 -42.7295 -27.8564c-23.2412 0.12207 -46.1191 0.178711 -69.3535 -0.816406c-23.1846 -0.992188 -46.4131 -2.58203 -67.9893 7.29688zM265.014 103.129c23.2969 -16.1777 5.99902 -47.0645 -13.6748 -56.3799
c-16.8633 -7.98926 -36.377 -6.5752 -54.6797 -6.64062c-14.0186 -0.0498047 -28.0098 0.100586 -42.0225 -0.5c-29.5176 -1.27051 -59.9805 -6.35547 -89.0449 0.807617c-11.1123 2.73828 -16.2754 15.1865 -15.4023 25.3623
c1.11426 13.0117 10.3896 21.1758 21.0293 27.0742c27.7969 15.4053 63.2412 17.1982 94.3047 19.1162c30.0938 1.8584 73.3271 9.32812 99.4902 -8.83984z" />
    <glyph glyph-name="greater" unicode="&#x3e;" horiz-adv-x="293" 
d="M240.398 176.908c13.1143 -38.6865 -26.3525 -59.2617 -53.6709 -74.6641c-24.6865 -13.916 -49.7422 -26.9238 -75.2051 -39.3691c-19.5732 -9.56934 -46.9385 -1.64941 -54.0732 19.9551c-7.7168 23.3594 9.66309 45.4014 29.6211 55.1582
c13.7119 6.70605 27.3174 13.6221 40.9609 20.4629c-4.69336 2.56641 -9.375 5.15723 -14.0029 7.83594c-20.8408 12.0635 -41.541 23.5166 -58.2168 41.1406c-18.8721 19.9453 12.3828 53.8662 34.4473 49.9297c29.2021 -5.20996 55.9883 -19.1572 82.3203 -32.4004
c22.8398 -11.4873 58.7695 -21.3564 67.8193 -48.0488z" />
    <glyph glyph-name="question" unicode="?" horiz-adv-x="344" 
d="M227.286 548.867c56.1445 -29.9844 66.7842 -90.2324 67.0654 -148.987c0.3125 -66.1553 -14.6328 -130.773 -26.8086 -195.427c-5.83594 -30.9824 -10.8613 -61.0576 -12.6201 -91.8145c-1.89648 -33.1758 0.0722656 -65.4785 2.78516 -98.5293
c2.14941 -26.1885 -21.3545 -49.373 -44.5645 -56.1475c-20.8691 -6.08984 -53.0342 0.691406 -58.498 26.041c-13.8936 64.5029 -3.50781 131.7 11.4307 195.158c12.3193 52.3145 29.0791 103.377 42.3721 155.416c12.0225 47.0732 30.7695 101.372 22.6396 150.529
c-4.36816 26.417 -19.6543 43.1211 -47.1074 45.1836c-24.3613 1.83105 -47.6396 -9.20898 -66.9785 -23.0684c-16.9443 -12.1416 -33.7793 -28.4014 -38.1758 -49.6084c-3.79297 -18.2998 3.18164 -40.458 21.0117 -48.7539
c15.3926 -7.16016 1.36719 -29.8848 -12.4424 -23.8174c-23.0469 10.1289 -36.334 32.2803 -37.3389 57.252c-1.07031 26.5986 13.4238 51.5547 31.8799 69.6729c36.4834 35.8076 96.0703 63.2168 145.35 36.9004zM229.268 -59.8164
c13.4805 0.641602 26.0752 -6.21582 30.7256 -19.3027c5.64551 -15.8838 1.2832 -35.8672 -0.553711 -52.0518c-2.125 -18.7314 -24.1797 -32.4941 -41.2715 -33.3018c-8.07617 -0.381836 -15.3955 1.45801 -22.1641 5.91113
c-6.69336 4.40625 -12.9453 15.5713 -12.2412 23.7666c1.47363 17.1387 1.88965 36.8682 10.1602 52.3984c6.91895 12.9893 20.7217 21.8887 35.3447 22.5801z" />
    <glyph glyph-name="at" unicode="@" horiz-adv-x="642" 
d="M390.346 49.1631c-37.6602 14.5098 -49.1299 57.1387 -49.2021 93.7754c-0.015625 8.50879 0.454102 17.0762 1.26465 25.6592c-16.6914 -16.5693 -34.4434 -32.2686 -53.8066 -45.5244c-17.915 -12.2666 -42.6143 -24.6768 -64.5781 -15.3018
c-28.2041 12.0352 -23.2471 48.1338 -13.8408 70.9619c10.6045 25.7383 28.4785 50.71 46.2959 71.9795c16.1533 19.2793 35.0537 37.7354 57.4688 49.5293c30.9727 16.2969 76.2871 13.0928 95.501 -15.123c8.22656 -4.14941 14.5381 -12.1758 14.2002 -21.8672
c-1.23633 -35.5889 -8.68359 -71.6631 -5.29492 -107.283c1.16113 -12.2197 3.8584 -24.7773 11.293 -32.2871c-0.826172 0.829102 0.569336 0.623047 1.50488 0.263672c1.38672 0.650391 3.22949 1.56738 3.51074 1.61426c1.87402 1.46094 7.5625 5.82617 6.61719 4.79004
c2.25977 2.1377 4.41602 4.58496 6.44043 6.85352c4.50879 5.05078 9.67188 11.6006 12.7227 16.2227c7.35352 11.1367 14.8135 26.6104 20.6055 40.0312c11.9971 27.7969 19.9707 58.46 23.3789 88.582c6.09277 53.876 -1.50781 111.332 -35.1904 152.81
c-30.4814 37.5352 -83.8438 47.7744 -128.291 34.0781c-28.0752 -8.64941 -47.0293 -19.7051 -70.0137 -36.3555c-9.55371 -6.92188 -18.876 -14.3135 -27.6289 -22.2432c-0.694336 -0.688477 -2.83496 -2.72852 -3.23242 -3.13184
c-2.22168 -2.24414 -4.49023 -4.43457 -6.69336 -6.69727c-4.40234 -4.52148 -8.69922 -9.15625 -12.8672 -13.8975c-18.6562 -21.2256 -28.2441 -34.9219 -41.1523 -58.2217c-12.9834 -23.4375 -21.3477 -42.8418 -28.3535 -66.0479
c-27.5654 -91.292 -19.7803 -214.38 56.3262 -282.03c37.2412 -33.1006 83.0596 -50.6553 129.848 -41.6338c13.5898 2.62207 20.8867 5.28516 34.7559 11.4561c6.23926 2.77539 12.4102 5.7666 18.3896 9.06445c0.328125 0.181641 0.575195 0.319336 0.832031 0.457031
c0.366211 0.238281 0.982422 0.625977 2.04297 1.27637c2.9541 1.81152 5.89551 3.63867 8.80273 5.52246c24.1299 15.627 46.8262 33.1475 68.7275 51.7383c14.8701 12.623 39.4629 12.5918 53.3066 -0.823242c13.3398 -12.9336 12.3975 -38.2051 -1.36133 -51.041
c-61.7393 -57.5967 -131.915 -109.326 -219.718 -111.998c-77.6553 -2.36523 -152.347 41.5098 -196.131 104.282c-79.3389 113.744 -69.876 271.823 -6.9248 390.439c63.5107 119.665 202.361 235.662 346.172 201.575c69.9668 -16.582 119.99 -77.8555 136.872 -145.788
c18.5215 -74.5322 7.65332 -154.875 -20.9199 -225.377c-13.9248 -34.3623 -33.041 -68.7021 -59.8213 -94.7314c-28.9043 -28.0947 -70.8896 -51.3447 -111.857 -35.5576zM295.823 183.072c27.0518 25.4004 47.5449 53.9385 67.835 84.7676
c2.49707 3.7959 5.43262 7.33203 8.75293 10.3584c-4.95703 2.57227 -10.4336 4.21484 -15.8691 4.72168c-17.3359 1.61816 -33.9648 -8.23926 -46.9072 -18.7314c-27.709 -22.4619 -52.9082 -55.7256 -62.8467 -90.2627
c-1.13574 -3.95215 -6.31152 -22.2549 -1.48047 -25.3994c2.92578 -1.90527 8.71191 1.6084 11.1025 2.90039c14.3164 7.73242 27.6191 20.5684 39.4131 31.6455z" />
    <glyph glyph-name="A" unicode="A" horiz-adv-x="797" 
d="M86.6523 -192.668c-60.2256 33.2139 -97.8467 93.9512 -117.852 158.254c-43.3613 139.366 -20.1328 306.12 64.751 425.193c20.0713 28.1533 47.6182 54.6797 79.3105 69.2871c29.0107 13.374 61.8682 17.1943 93.4453 14.2275
c68.042 -6.39258 103.631 -62.4805 115.447 -124.555c3.08496 -16.1934 -24.5215 -29.4424 -28.2549 -11.8838c-6.51172 30.6133 -18.084 63.1699 -43.6904 83.0625c-24.9619 19.3916 -59.3457 20.1836 -86.958 6.11133
c-52.8711 -26.9424 -79.7979 -93.6826 -96.874 -146.589c-19.8428 -61.4834 -30.1064 -124.009 -26.2266 -188.668c3.19141 -53.166 17.5107 -107.956 43.4268 -152.785c26.8359 -46.416 64.8125 -87.5625 117.997 -102.232
c24.2168 -6.68066 49.8574 -4.51562 72.6631 5.89844c26.1514 11.9414 43.7842 33.0703 58.3105 57.2559c32.1807 53.5752 53.3184 114.852 71.8525 174.241c5.29785 16.9824 10.248 34.0645 14.9453 51.2158c-31.1582 -4.55664 -61.6152 -12.3613 -90.5508 -24.9316
c-22.2178 -9.65332 -36.6748 20.5723 -16.5791 32.6045c36.168 21.6543 74.9355 24.6455 116.15 26.7295c8.90234 35.3291 16.8135 70.9111 24.0576 106.609c23.5098 115.832 40.6357 232.894 64.9844 348.547c-1.19824 13.1553 -2.3623 26.3135 -3.46973 39.4746
c-2.00293 23.7764 21.4004 45.2803 43.1328 48.8662c24.0889 3.97461 41.71 -10.8828 45.2803 -33.9424c9.36621 -60.4785 17.4111 -121.058 25.5723 -181.708c14.0098 -104.094 27.8506 -208.548 46.7266 -311.888c1.68359 -9.20605 3.45117 -18.3936 5.21582 -27.5811
c3.83008 -0.512695 7.66016 -1.02246 11.4932 -1.53906c37.0439 -4.98535 85.25 -6.16797 107.83 29.9775c7.84473 12.5518 30.9912 7.28516 22.2949 -7.88867c-28.6074 -49.9082 -81.8604 -55.6787 -135.464 -51.8105c6.1582 -30.5879 12.6387 -61.1045 19.3574 -91.6016
c5.53223 -25.1123 11.4902 -50.1211 17.1133 -75.2148c5.05664 -22.5615 11.1113 -48.1992 9.03711 -71.4678c-1.44922 -16.2129 -13.0898 -25.6064 -28.9424 -26.2891c-28.3066 -1.2207 -47.1572 41.3213 -56.9268 62.2617
c-12.7891 27.4092 -23.4189 55.751 -32.0186 84.7617c-12.5078 42.1943 -22.5215 85.0957 -31.0459 128.339c-44.2656 3.09766 -89.9834 4.85938 -134.797 0.975586c-15.9492 -60.1846 -35.2412 -119.502 -59.5518 -176.852
c-22.7998 -53.7852 -54.458 -113.951 -105.021 -146.68c-59.7178 -38.6553 -136.015 -30.9668 -196.174 2.21289zM525.447 529.504c-22.0107 -121.796 -39.6865 -244.436 -68.8574 -364.802c-0.303711 -1.25488 -0.635742 -2.50391 -0.942383 -3.75879
c34.4814 1.18555 68.9902 1.2666 103.462 -0.419922c5.69824 -0.28125 11.3838 -0.625 17.0605 -1.0166c-9.6416 53.3877 -17.3398 107.17 -24.8564 160.692c-9.76953 69.582 -18.4404 139.389 -25.8662 209.305z" />
    <glyph glyph-name="A" unicode="&#xc5;" horiz-adv-x="797" 
d="M86.6523 -192.668c-60.2256 33.2139 -97.8467 93.9512 -117.852 158.254c-43.3613 139.366 -20.1328 306.12 64.751 425.193c20.0713 28.1533 47.6182 54.6797 79.3105 69.2871c29.0107 13.374 61.8682 17.1943 93.4453 14.2275
c68.042 -6.39258 103.631 -62.4805 115.447 -124.555c3.08496 -16.1934 -24.5215 -29.4424 -28.2549 -11.8838c-6.51172 30.6133 -18.084 63.1699 -43.6904 83.0625c-24.9619 19.3916 -59.3457 20.1836 -86.958 6.11133
c-52.8711 -26.9424 -79.7979 -93.6826 -96.874 -146.589c-19.8428 -61.4834 -30.1064 -124.009 -26.2266 -188.668c3.19141 -53.166 17.5107 -107.956 43.4268 -152.785c26.8359 -46.416 64.8125 -87.5625 117.997 -102.232
c24.2168 -6.68066 49.8574 -4.51562 72.6631 5.89844c26.1514 11.9414 43.7842 33.0703 58.3105 57.2559c32.1807 53.5752 53.3184 114.852 71.8525 174.241c5.29785 16.9824 10.248 34.0645 14.9453 51.2158c-31.1582 -4.55664 -61.6152 -12.3613 -90.5508 -24.9316
c-22.2178 -9.65332 -36.6748 20.5723 -16.5791 32.6045c36.168 21.6543 74.9355 24.6455 116.15 26.7295c8.90234 35.3291 16.8135 70.9111 24.0576 106.609c23.5098 115.832 40.6357 232.894 64.9844 348.547c-1.19824 13.1553 -2.3623 26.3135 -3.46973 39.4746
c-2.00293 23.7764 21.4004 45.2803 43.1328 48.8662c24.0889 3.97461 41.71 -10.8828 45.2803 -33.9424c9.36621 -60.4785 17.4111 -121.058 25.5723 -181.708c14.0098 -104.094 27.8506 -208.548 46.7266 -311.888c1.68359 -9.20605 3.45117 -18.3936 5.21582 -27.5811
c3.83008 -0.512695 7.66016 -1.02246 11.4932 -1.53906c37.0439 -4.98535 85.25 -6.16797 107.83 29.9775c7.84473 12.5518 30.9912 7.28516 22.2949 -7.88867c-28.6074 -49.9082 -81.8604 -55.6787 -135.464 -51.8105c6.1582 -30.5879 12.6387 -61.1045 19.3574 -91.6016
c5.53223 -25.1123 11.4902 -50.1211 17.1133 -75.2148c5.05664 -22.5615 11.1113 -48.1992 9.03711 -71.4678c-1.44922 -16.2129 -13.0898 -25.6064 -28.9424 -26.2891c-28.3066 -1.2207 -47.1572 41.3213 -56.9268 62.2617
c-12.7891 27.4092 -23.4189 55.751 -32.0186 84.7617c-12.5078 42.1943 -22.5215 85.0957 -31.0459 128.339c-44.2656 3.09766 -89.9834 4.85938 -134.797 0.975586c-15.9492 -60.1846 -35.2412 -119.502 -59.5518 -176.852
c-22.7998 -53.7852 -54.458 -113.951 -105.021 -146.68c-59.7178 -38.6553 -136.015 -30.9668 -196.174 2.21289zM525.447 529.504c-22.0107 -121.796 -39.6865 -244.436 -68.8574 -364.802c-0.303711 -1.25488 -0.635742 -2.50391 -0.942383 -3.75879
c34.4814 1.18555 68.9902 1.2666 103.462 -0.419922c5.69824 -0.28125 11.3838 -0.625 17.0605 -1.0166c-9.6416 53.3877 -17.3398 107.17 -24.8564 160.692c-9.76953 69.582 -18.4404 139.389 -25.8662 209.305z" />
    <glyph glyph-name="A" unicode="&#xc4;" horiz-adv-x="797" 
d="M86.6523 -192.668c-60.2256 33.2139 -97.8467 93.9512 -117.852 158.254c-43.3613 139.366 -20.1328 306.12 64.751 425.193c20.0713 28.1533 47.6182 54.6797 79.3105 69.2871c29.0107 13.374 61.8682 17.1943 93.4453 14.2275
c68.042 -6.39258 103.631 -62.4805 115.447 -124.555c3.08496 -16.1934 -24.5215 -29.4424 -28.2549 -11.8838c-6.51172 30.6133 -18.084 63.1699 -43.6904 83.0625c-24.9619 19.3916 -59.3457 20.1836 -86.958 6.11133
c-52.8711 -26.9424 -79.7979 -93.6826 -96.874 -146.589c-19.8428 -61.4834 -30.1064 -124.009 -26.2266 -188.668c3.19141 -53.166 17.5107 -107.956 43.4268 -152.785c26.8359 -46.416 64.8125 -87.5625 117.997 -102.232
c24.2168 -6.68066 49.8574 -4.51562 72.6631 5.89844c26.1514 11.9414 43.7842 33.0703 58.3105 57.2559c32.1807 53.5752 53.3184 114.852 71.8525 174.241c5.29785 16.9824 10.248 34.0645 14.9453 51.2158c-31.1582 -4.55664 -61.6152 -12.3613 -90.5508 -24.9316
c-22.2178 -9.65332 -36.6748 20.5723 -16.5791 32.6045c36.168 21.6543 74.9355 24.6455 116.15 26.7295c8.90234 35.3291 16.8135 70.9111 24.0576 106.609c23.5098 115.832 40.6357 232.894 64.9844 348.547c-1.19824 13.1553 -2.3623 26.3135 -3.46973 39.4746
c-2.00293 23.7764 21.4004 45.2803 43.1328 48.8662c24.0889 3.97461 41.71 -10.8828 45.2803 -33.9424c9.36621 -60.4785 17.4111 -121.058 25.5723 -181.708c14.0098 -104.094 27.8506 -208.548 46.7266 -311.888c1.68359 -9.20605 3.45117 -18.3936 5.21582 -27.5811
c3.83008 -0.512695 7.66016 -1.02246 11.4932 -1.53906c37.0439 -4.98535 85.25 -6.16797 107.83 29.9775c7.84473 12.5518 30.9912 7.28516 22.2949 -7.88867c-28.6074 -49.9082 -81.8604 -55.6787 -135.464 -51.8105c6.1582 -30.5879 12.6387 -61.1045 19.3574 -91.6016
c5.53223 -25.1123 11.4902 -50.1211 17.1133 -75.2148c5.05664 -22.5615 11.1113 -48.1992 9.03711 -71.4678c-1.44922 -16.2129 -13.0898 -25.6064 -28.9424 -26.2891c-28.3066 -1.2207 -47.1572 41.3213 -56.9268 62.2617
c-12.7891 27.4092 -23.4189 55.751 -32.0186 84.7617c-12.5078 42.1943 -22.5215 85.0957 -31.0459 128.339c-44.2656 3.09766 -89.9834 4.85938 -134.797 0.975586c-15.9492 -60.1846 -35.2412 -119.502 -59.5518 -176.852
c-22.7998 -53.7852 -54.458 -113.951 -105.021 -146.68c-59.7178 -38.6553 -136.015 -30.9668 -196.174 2.21289zM525.447 529.504c-22.0107 -121.796 -39.6865 -244.436 -68.8574 -364.802c-0.303711 -1.25488 -0.635742 -2.50391 -0.942383 -3.75879
c34.4814 1.18555 68.9902 1.2666 103.462 -0.419922c5.69824 -0.28125 11.3838 -0.625 17.0605 -1.0166c-9.6416 53.3877 -17.3398 107.17 -24.8564 160.692c-9.76953 69.582 -18.4404 139.389 -25.8662 209.305z" />
    <glyph glyph-name="A" unicode="&#xc3;" horiz-adv-x="797" 
d="M86.6523 -192.668c-60.2256 33.2139 -97.8467 93.9512 -117.852 158.254c-43.3613 139.366 -20.1328 306.12 64.751 425.193c20.0713 28.1533 47.6182 54.6797 79.3105 69.2871c29.0107 13.374 61.8682 17.1943 93.4453 14.2275
c68.042 -6.39258 103.631 -62.4805 115.447 -124.555c3.08496 -16.1934 -24.5215 -29.4424 -28.2549 -11.8838c-6.51172 30.6133 -18.084 63.1699 -43.6904 83.0625c-24.9619 19.3916 -59.3457 20.1836 -86.958 6.11133
c-52.8711 -26.9424 -79.7979 -93.6826 -96.874 -146.589c-19.8428 -61.4834 -30.1064 -124.009 -26.2266 -188.668c3.19141 -53.166 17.5107 -107.956 43.4268 -152.785c26.8359 -46.416 64.8125 -87.5625 117.997 -102.232
c24.2168 -6.68066 49.8574 -4.51562 72.6631 5.89844c26.1514 11.9414 43.7842 33.0703 58.3105 57.2559c32.1807 53.5752 53.3184 114.852 71.8525 174.241c5.29785 16.9824 10.248 34.0645 14.9453 51.2158c-31.1582 -4.55664 -61.6152 -12.3613 -90.5508 -24.9316
c-22.2178 -9.65332 -36.6748 20.5723 -16.5791 32.6045c36.168 21.6543 74.9355 24.6455 116.15 26.7295c8.90234 35.3291 16.8135 70.9111 24.0576 106.609c23.5098 115.832 40.6357 232.894 64.9844 348.547c-1.19824 13.1553 -2.3623 26.3135 -3.46973 39.4746
c-2.00293 23.7764 21.4004 45.2803 43.1328 48.8662c24.0889 3.97461 41.71 -10.8828 45.2803 -33.9424c9.36621 -60.4785 17.4111 -121.058 25.5723 -181.708c14.0098 -104.094 27.8506 -208.548 46.7266 -311.888c1.68359 -9.20605 3.45117 -18.3936 5.21582 -27.5811
c3.83008 -0.512695 7.66016 -1.02246 11.4932 -1.53906c37.0439 -4.98535 85.25 -6.16797 107.83 29.9775c7.84473 12.5518 30.9912 7.28516 22.2949 -7.88867c-28.6074 -49.9082 -81.8604 -55.6787 -135.464 -51.8105c6.1582 -30.5879 12.6387 -61.1045 19.3574 -91.6016
c5.53223 -25.1123 11.4902 -50.1211 17.1133 -75.2148c5.05664 -22.5615 11.1113 -48.1992 9.03711 -71.4678c-1.44922 -16.2129 -13.0898 -25.6064 -28.9424 -26.2891c-28.3066 -1.2207 -47.1572 41.3213 -56.9268 62.2617
c-12.7891 27.4092 -23.4189 55.751 -32.0186 84.7617c-12.5078 42.1943 -22.5215 85.0957 -31.0459 128.339c-44.2656 3.09766 -89.9834 4.85938 -134.797 0.975586c-15.9492 -60.1846 -35.2412 -119.502 -59.5518 -176.852
c-22.7998 -53.7852 -54.458 -113.951 -105.021 -146.68c-59.7178 -38.6553 -136.015 -30.9668 -196.174 2.21289zM525.447 529.504c-22.0107 -121.796 -39.6865 -244.436 -68.8574 -364.802c-0.303711 -1.25488 -0.635742 -2.50391 -0.942383 -3.75879
c34.4814 1.18555 68.9902 1.2666 103.462 -0.419922c5.69824 -0.28125 11.3838 -0.625 17.0605 -1.0166c-9.6416 53.3877 -17.3398 107.17 -24.8564 160.692c-9.76953 69.582 -18.4404 139.389 -25.8662 209.305z" />
    <glyph glyph-name="A" unicode="&#xc2;" horiz-adv-x="797" 
d="M86.6523 -192.668c-60.2256 33.2139 -97.8467 93.9512 -117.852 158.254c-43.3613 139.366 -20.1328 306.12 64.751 425.193c20.0713 28.1533 47.6182 54.6797 79.3105 69.2871c29.0107 13.374 61.8682 17.1943 93.4453 14.2275
c68.042 -6.39258 103.631 -62.4805 115.447 -124.555c3.08496 -16.1934 -24.5215 -29.4424 -28.2549 -11.8838c-6.51172 30.6133 -18.084 63.1699 -43.6904 83.0625c-24.9619 19.3916 -59.3457 20.1836 -86.958 6.11133
c-52.8711 -26.9424 -79.7979 -93.6826 -96.874 -146.589c-19.8428 -61.4834 -30.1064 -124.009 -26.2266 -188.668c3.19141 -53.166 17.5107 -107.956 43.4268 -152.785c26.8359 -46.416 64.8125 -87.5625 117.997 -102.232
c24.2168 -6.68066 49.8574 -4.51562 72.6631 5.89844c26.1514 11.9414 43.7842 33.0703 58.3105 57.2559c32.1807 53.5752 53.3184 114.852 71.8525 174.241c5.29785 16.9824 10.248 34.0645 14.9453 51.2158c-31.1582 -4.55664 -61.6152 -12.3613 -90.5508 -24.9316
c-22.2178 -9.65332 -36.6748 20.5723 -16.5791 32.6045c36.168 21.6543 74.9355 24.6455 116.15 26.7295c8.90234 35.3291 16.8135 70.9111 24.0576 106.609c23.5098 115.832 40.6357 232.894 64.9844 348.547c-1.19824 13.1553 -2.3623 26.3135 -3.46973 39.4746
c-2.00293 23.7764 21.4004 45.2803 43.1328 48.8662c24.0889 3.97461 41.71 -10.8828 45.2803 -33.9424c9.36621 -60.4785 17.4111 -121.058 25.5723 -181.708c14.0098 -104.094 27.8506 -208.548 46.7266 -311.888c1.68359 -9.20605 3.45117 -18.3936 5.21582 -27.5811
c3.83008 -0.512695 7.66016 -1.02246 11.4932 -1.53906c37.0439 -4.98535 85.25 -6.16797 107.83 29.9775c7.84473 12.5518 30.9912 7.28516 22.2949 -7.88867c-28.6074 -49.9082 -81.8604 -55.6787 -135.464 -51.8105c6.1582 -30.5879 12.6387 -61.1045 19.3574 -91.6016
c5.53223 -25.1123 11.4902 -50.1211 17.1133 -75.2148c5.05664 -22.5615 11.1113 -48.1992 9.03711 -71.4678c-1.44922 -16.2129 -13.0898 -25.6064 -28.9424 -26.2891c-28.3066 -1.2207 -47.1572 41.3213 -56.9268 62.2617
c-12.7891 27.4092 -23.4189 55.751 -32.0186 84.7617c-12.5078 42.1943 -22.5215 85.0957 -31.0459 128.339c-44.2656 3.09766 -89.9834 4.85938 -134.797 0.975586c-15.9492 -60.1846 -35.2412 -119.502 -59.5518 -176.852
c-22.7998 -53.7852 -54.458 -113.951 -105.021 -146.68c-59.7178 -38.6553 -136.015 -30.9668 -196.174 2.21289zM525.447 529.504c-22.0107 -121.796 -39.6865 -244.436 -68.8574 -364.802c-0.303711 -1.25488 -0.635742 -2.50391 -0.942383 -3.75879
c34.4814 1.18555 68.9902 1.2666 103.462 -0.419922c5.69824 -0.28125 11.3838 -0.625 17.0605 -1.0166c-9.6416 53.3877 -17.3398 107.17 -24.8564 160.692c-9.76953 69.582 -18.4404 139.389 -25.8662 209.305z" />
    <glyph glyph-name="A" unicode="&#xc1;" horiz-adv-x="797" 
d="M86.6523 -192.668c-60.2256 33.2139 -97.8467 93.9512 -117.852 158.254c-43.3613 139.366 -20.1328 306.12 64.751 425.193c20.0713 28.1533 47.6182 54.6797 79.3105 69.2871c29.0107 13.374 61.8682 17.1943 93.4453 14.2275
c68.042 -6.39258 103.631 -62.4805 115.447 -124.555c3.08496 -16.1934 -24.5215 -29.4424 -28.2549 -11.8838c-6.51172 30.6133 -18.084 63.1699 -43.6904 83.0625c-24.9619 19.3916 -59.3457 20.1836 -86.958 6.11133
c-52.8711 -26.9424 -79.7979 -93.6826 -96.874 -146.589c-19.8428 -61.4834 -30.1064 -124.009 -26.2266 -188.668c3.19141 -53.166 17.5107 -107.956 43.4268 -152.785c26.8359 -46.416 64.8125 -87.5625 117.997 -102.232
c24.2168 -6.68066 49.8574 -4.51562 72.6631 5.89844c26.1514 11.9414 43.7842 33.0703 58.3105 57.2559c32.1807 53.5752 53.3184 114.852 71.8525 174.241c5.29785 16.9824 10.248 34.0645 14.9453 51.2158c-31.1582 -4.55664 -61.6152 -12.3613 -90.5508 -24.9316
c-22.2178 -9.65332 -36.6748 20.5723 -16.5791 32.6045c36.168 21.6543 74.9355 24.6455 116.15 26.7295c8.90234 35.3291 16.8135 70.9111 24.0576 106.609c23.5098 115.832 40.6357 232.894 64.9844 348.547c-1.19824 13.1553 -2.3623 26.3135 -3.46973 39.4746
c-2.00293 23.7764 21.4004 45.2803 43.1328 48.8662c24.0889 3.97461 41.71 -10.8828 45.2803 -33.9424c9.36621 -60.4785 17.4111 -121.058 25.5723 -181.708c14.0098 -104.094 27.8506 -208.548 46.7266 -311.888c1.68359 -9.20605 3.45117 -18.3936 5.21582 -27.5811
c3.83008 -0.512695 7.66016 -1.02246 11.4932 -1.53906c37.0439 -4.98535 85.25 -6.16797 107.83 29.9775c7.84473 12.5518 30.9912 7.28516 22.2949 -7.88867c-28.6074 -49.9082 -81.8604 -55.6787 -135.464 -51.8105c6.1582 -30.5879 12.6387 -61.1045 19.3574 -91.6016
c5.53223 -25.1123 11.4902 -50.1211 17.1133 -75.2148c5.05664 -22.5615 11.1113 -48.1992 9.03711 -71.4678c-1.44922 -16.2129 -13.0898 -25.6064 -28.9424 -26.2891c-28.3066 -1.2207 -47.1572 41.3213 -56.9268 62.2617
c-12.7891 27.4092 -23.4189 55.751 -32.0186 84.7617c-12.5078 42.1943 -22.5215 85.0957 -31.0459 128.339c-44.2656 3.09766 -89.9834 4.85938 -134.797 0.975586c-15.9492 -60.1846 -35.2412 -119.502 -59.5518 -176.852
c-22.7998 -53.7852 -54.458 -113.951 -105.021 -146.68c-59.7178 -38.6553 -136.015 -30.9668 -196.174 2.21289zM525.447 529.504c-22.0107 -121.796 -39.6865 -244.436 -68.8574 -364.802c-0.303711 -1.25488 -0.635742 -2.50391 -0.942383 -3.75879
c34.4814 1.18555 68.9902 1.2666 103.462 -0.419922c5.69824 -0.28125 11.3838 -0.625 17.0605 -1.0166c-9.6416 53.3877 -17.3398 107.17 -24.8564 160.692c-9.76953 69.582 -18.4404 139.389 -25.8662 209.305z" />
    <glyph glyph-name="B" unicode="B" horiz-adv-x="548" 
d="M-82.7451 -57.4756c-0.841797 56.9492 38.5605 103.28 90.2402 122.91c14.4785 5.50098 29.2168 9.13672 44.1152 11.4551c-8.14551 51.0127 -14.4639 102.157 -18.4258 153.762c-9.58203 124.771 -10.3047 251.102 7.55371 375.147
c3.58008 24.8809 31.5459 43.1025 54.7803 44.2012c21.9395 1.03906 46.9424 -14.626 45.6621 -39.3877c-6.20508 -119.943 -12.1191 -239.505 -5.2002 -359.58c0.046875 -0.820312 0.106445 -1.64062 0.15332 -2.46387
c0.0498047 0.285156 0.0966797 0.570312 0.146484 0.851562c15.6084 87.5156 37.5947 174.899 75.0049 255.853c16.9766 36.7402 37.0723 72.7393 62.0557 104.683c22.4746 28.7393 55.8916 62.6191 93.4424 69.6846c37.6133 7.07812 57.2021 -25.3662 61.9521 -58.1758
c5.80469 -40.0977 -6.87793 -79.2197 -20.8535 -116.323c-18.4375 -48.9473 -45.834 -94.6807 -78.0811 -136.644c30.7607 -8.32422 57.5127 -30.0596 74.6514 -56.6357c39.0625 -60.5723 41.707 -138.885 26.3115 -207.449
c-1.08594 -4.82812 -2.30273 -9.65625 -3.5791 -14.4814c43.834 10.8018 85.9756 27.5117 124.75 52.4199c13.7998 8.8623 26.9707 -9.01172 13.0459 -17.9551c-45.0361 -28.9297 -94.209 -47.7832 -145.297 -59.4863c-35.3916 -105.868 -115.797 -205.791 -220.554 -244.3
c-57.0244 -20.9629 -120.852 -22.6963 -177.716 0.291016c-50.1807 20.2871 -103.296 63.0859 -104.159 121.624zM237.13 -62.4229c-3.24219 -2.79785 -1.84961 -1.67383 0 0zM317.433 46.4941c0.634766 1.33301 1.21191 2.62988 1.8252 3.94727
c-29.665 -2.0625 -59.4863 -2.44727 -89.0703 -1.64648c-24.9053 0.672852 -50.1611 3.19824 -75.4424 5.10742c7.34473 -53.2783 17.0518 -107.53 13.9785 -161.056c5.00977 2.15918 9.96973 4.47754 14.8701 6.95605c2.1123 1.07031 4.21875 2.16602 6.30566 3.29883
c0.616211 0.418945 3.56738 2.21191 4.08691 2.56543c4.70996 3.18262 9.55371 6.16797 14.2354 9.39453c10.0859 6.9502 19.6553 14.5352 28.9268 22.5303c0.407227 0.366211 0.823242 0.748047 1.22656 1.13281c2.375 2.25586 4.7627 4.50586 7.10059 6.7998
c4.10254 4.02734 8.11133 8.14551 12.0225 12.3604c8.38965 9.04395 16.3252 18.5068 23.7979 28.3232c8.51758 11.1904 8.74023 11.3906 16.9072 24.8154c6.99414 11.4941 13.4307 23.3291 19.2295 35.4707zM316.173 616.006
c-51.501 -51.9072 -83.5029 -125.587 -106.571 -193.867c-10.8994 -32.2656 -20.124 -65.1816 -27.9688 -98.458c4.0332 7.79492 10.0381 14.8545 16.7129 20.5186c29.5527 25.0781 59.1768 55.3691 86.373 88.708c25.3809 31.1104 51.0439 63.9795 70.5547 99.1484
c8.96191 16.1562 17.1572 33.0225 22.5303 50.7432c4.38379 14.4541 10.8359 28.9893 11.6465 44.2783c2.64453 49.9268 -58.3223 4.00195 -73.2773 -11.0713zM157.187 190.629c-3.99316 -28.9424 -6.88379 -58.0361 -8.55469 -87.1846
c0.948242 -8.38281 1.93066 -16.7598 2.95703 -25.127c15.1113 -1.05469 30.1914 -2.2998 45.1465 -3.24219c43.6309 -2.74121 88.3506 -3.48926 132.616 -0.200195c4.6875 13.002 8.4209 26.3574 11.6006 41.7002c5.10059 24.6113 6.38965 47.1855 3.97656 73.3145
c-1.04199 11.2529 -2.5625 19.7773 -5.72656 30.7363c-1.47656 5.11328 -3.1543 10.1729 -5.0752 15.1357c-0.756836 1.95605 -6.84961 14.7393 -4.53711 10.6025c-4.45898 7.97949 -13.7686 20.8936 -17.3984 24.3047c-5.57617 5.23828 -11.1523 9.04004 -18.8975 11.7314
c-19.1445 6.64941 -37.1533 -1.39941 -57.7598 -11.3408c-19.5957 -9.45312 -44.4951 -2.90723 -54.7305 16.1846c-2.54102 4.7373 -3.82129 9.52832 -4.1748 14.2656c-7.96094 -36.7432 -14.332 -73.8311 -19.4424 -110.881zM57.1367 43.7266
c-0.519531 2.96387 -1.00488 5.9248 -1.51172 8.8916c-0.015625 -0.00292969 -0.0341797 -0.00585938 -0.0498047 -0.00585938c-47.1641 -7.59473 -99.1533 -39.5439 -100.771 -92.3994c-1.49219 -48.8096 56.8809 -76.7412 97.9023 -83.1689
c18.5596 -2.90723 36.5996 -3.09766 54.1104 -1.06055c-28.1416 51.1162 -39.6885 110.703 -49.6797 167.743z" />
    <glyph glyph-name="C" unicode="C" horiz-adv-x="435" 
d="M66.6357 -121.688c-47.6084 37.623 -75.8096 96.6504 -89.0684 154.723c-30.3008 132.767 -14.792 278.714 22.1328 408.605c17.3955 61.1982 39.6416 122.419 75.0117 175.713c35.1631 52.9844 90.3506 112.634 159.021 113.416
c27.1807 0.306641 54.8467 -7.97656 71.166 -31.2236c17.3926 -24.7832 21.9834 -56.9424 24.668 -86.335c6.0459 -66.1611 -8.16992 -131.215 -23.2461 -195.255c-3.99902 -16.9922 -33.7646 -17.5557 -29.4521 2.24609c13.7744 63.248 30.7881 132.742 17.1602 197.464
c-4.72852 22.4648 -12.8271 62.4219 -42.3799 62.8066c-22.6436 0.296875 -38.9902 -25.6504 -51.1719 -41.8096c-2.58203 -3.42383 -5.14453 -6.84375 -7.64453 -10.333c1.55176 2.16504 4.64355 6.83105 -2.22168 -3.24512
c-3.7207 -5.46094 -7.64453 -10.7842 -11.3936 -16.2197c0.529297 0.597656 -5.43164 -8.74902 -6.30176 -10.1943c-3.09473 -5.13867 -6.04883 -10.3555 -9.00879 -15.5684c-12.8984 -22.709 -24.0635 -46.1748 -33.6797 -70.458
c-8.53027 -21.5449 -15.2021 -39.5537 -23.748 -67.6318c-8.55859 -28.1133 -15.7998 -56.627 -21.7266 -85.4131c-12.1191 -58.8643 -17.5576 -106.182 -19.4854 -165.337c-1.77734 -54.543 0.607422 -109.38 11.1904 -162.978
c8.77441 -44.457 23.873 -93.0381 55.3848 -126.959c14.7422 -15.8652 35.8584 -29.2266 57.6006 -32.3184c23.8262 -3.38867 51.0908 5.96777 72.0908 16.5293c46.4844 23.3818 79.3193 67.582 104.5 111.767c27.7344 48.6631 48.7627 100.677 62.9658 154.834
c4.23047 16.1279 32.9131 16.7002 28.2314 -2.15332c-17.1387 -69.0088 -44.6631 -136.479 -84.4326 -195.631c-35.748 -53.1719 -84.9082 -98.5742 -149.183 -112.402c-55.4092 -11.9219 -112.211 -2.02051 -156.98 33.3613z" />
    <glyph glyph-name="D" unicode="D" horiz-adv-x="592" 
d="M58.873 -222.956c-41.1279 17.0293 -77.9707 49.0244 -98.915 88.5059c-36.9277 69.6221 -43.7559 178.907 32.8916 225.761c6.47754 3.95801 13.2051 7.0752 20.0957 9.59082c-8.27637 85.625 -8.17969 171.851 -3.4541 257.857
c6.36133 115.734 20.0957 231.103 38.8457 345.441c3.87109 23.6006 31.6055 41.2119 54.208 39.3848c25.3281 -2.0498 36.1084 -23.0879 33.4766 -46.0781c-7.03809 -61.4961 -14.7832 -122.948 -20.9414 -184.538c-10.8799 -108.784 -16.7129 -218.316 -11.5186 -327.614
c0.998047 -21.0068 2.36523 -41.957 4.04883 -62.876c10.4238 71.2744 26.877 142.07 44.7637 211.039c25.7881 99.416 57.1494 205.885 118.646 289.704c25.6221 34.9258 63.4014 74.0068 110.634 71.0342c41.124 -2.58789 72.2666 -41.4346 90.582 -74.8643
c25.6875 -46.8818 36.4053 -102.942 42.6885 -155.522c6.45605 -54.001 7.88574 -109.714 3.58301 -163.925c-5.15039 -64.875 -17.4736 -129.074 -38.1797 -190.498c40.4355 8.46777 80.3203 19.5957 119.32 33.3145c15.9375 5.61035 21.8584 -16.1377 6.96289 -21.3916
c-21.9141 -7.72656 -44.0566 -14.7236 -66.4463 -20.9385c-22.7461 -6.31445 -45.7363 -11.7559 -68.8955 -16.3438c-11.6533 -30.6191 -25.4814 -60.46 -41.6973 -89.2334c-48.9287 -86.8145 -123.154 -178.535 -219.45 -214.355
c-48.5469 -18.0586 -102.404 -23.6787 -151.248 -3.4541zM349.986 31.2773c7.25 12.5576 14.0195 25.3799 20.4092 38.3916c-38.5459 -3.44824 -77.2979 -4.62207 -115.966 -3.43945c-42.2383 1.29199 -83.6846 6.54883 -125.363 12.3975
c-3.75195 -30.3164 -6.16113 -60.7451 -6.59277 -91.249c1.62695 -13.3398 3.17578 -26.6895 4.5498 -40.0479c2.75391 -26.7764 8.4082 -54.0225 -0.259766 -80.0635c-1.58984 -4.78125 -4.5752 -9.25879 -8.37109 -12.8105
c3.4082 -0.174805 6.81934 -0.275391 10.2363 -0.322266c1.3457 -0.0185547 9.24121 0.078125 9.14746 -0.0595703c9.96387 0.701172 19.8584 2.5752 29.5342 4.95996c0.134766 0.03125 0.231445 0.0566406 0.353516 0.0878906
c1.97461 0.647461 3.94336 1.31738 5.89941 2.02148c5.4043 1.94922 10.6963 4.13965 15.9531 6.45508c5.29199 2.32812 10.5361 4.75684 15.6904 7.38184c1.56445 0.797852 3.11328 1.62695 4.66504 2.45312c0.244141 0.15332 0.519531 0.325195 0.835938 0.522461
c8.58984 5.34766 16.9922 10.9082 25.0996 16.9668c8.13281 6.07422 16.0127 12.5264 23.5791 19.3047c0.916992 0.945312 5.3418 5.1543 6.5 6.30566c3.5459 3.5293 7.02539 7.13086 10.4453 10.7822c15.0205 16.0342 29.0303 33.0264 42.0479 50.7227
c3.37305 4.58789 6.71777 9.20996 9.9248 13.916c0.174805 0.347656 4.56836 7.09473 5.27539 8.20215c5.68262 8.90918 11.124 17.9746 16.4062 27.1211zM156.062 230.721c-8.92188 -42.2764 -17.4463 -84.9316 -23.7051 -127.833
c48.2656 -6.8877 96.2363 -12.583 145.159 -13.2217c34.8623 -0.454102 69.7188 1.10156 104.378 4.58105c35.5449 80.5244 55.5439 175.568 63.1543 266.109c4.1709 49.6455 5.80469 100.417 3.35156 150.2c-1.17676 23.8701 -3.77051 47.7021 -9.37207 70.9678
c-4.72852 19.6357 -9.2627 41.1738 -20.3154 58.4443c-11.0117 17.2041 -31.3457 29.248 -52.042 26.9199c-21.6484 -2.4375 -40.2803 -18.2812 -54.4463 -33.7363c-31.1299 -33.9648 -53.2129 -75.4424 -71.3691 -117.475
c-39.3096 -91.0107 -64.3682 -188.186 -84.793 -284.957zM-5.39355 61.7002c-24.9775 -24.0264 -24.7637 -66.9854 -14.6436 -97.6768c11.043 -33.4951 37.457 -62.9004 65.877 -83.0059c9.3877 -6.64355 18.1084 -11.5752 27.7559 -15.6553
c-14.8389 18.8945 -22.3711 44.5293 -29.8809 66.7031c-10.1953 30.0996 -16.2129 61.9961 -21.1973 93.3105c-2.67578 16.8008 -4.93848 33.6396 -6.90039 50.5c-7.58887 -3.4707 -14.6768 -8.08301 -21.0107 -14.1758z" />
    <glyph glyph-name="E" unicode="E" horiz-adv-x="416" 
d="M-44.0928 71.1104c-7.82324 80.2305 9.66309 171.199 51.9707 240.549c7.77637 12.7549 16.7354 26.3076 26.8369 39.1064c-11.625 14.4131 -20.9248 30.8389 -27.6338 48.6445c-43.3457 115.018 30.6797 270.434 144.077 314.168
c29.8154 11.5 66.8467 22.5088 98.2168 11.6758c33.9492 -11.7256 49.4639 -43.1309 56.167 -76.3447c15.7021 -77.8145 -0.116211 -155.025 -17.9717 -230.966c-3.99902 -16.9951 -33.7734 -17.5518 -29.4551 2.24707c15.6211 71.6279 34.3525 150.738 10.749 222.688
c-7.08496 21.5947 -25.6572 51.0625 -52.3125 35.4473c-11.8438 -6.9375 -20.7148 -15.79 -28.3818 -23.084c-3.72363 -3.54199 -7.64746 -6.875 -11.4053 -10.3828c-0.431641 -0.447266 -0.925781 -0.957031 -1.54492 -1.5957
c-4.02148 -4.15527 -8.08984 -8.23535 -11.9141 -12.5791c-7.88574 -8.95605 -15.2578 -18.4844 -22.4961 -27.9688c-0.422852 -0.553711 -1.53711 -2.16211 -2.41016 -3.42676c-0.634766 -1.01074 -1.26953 -2.02441 -1.53223 -2.46582
c-3.04199 -5.12891 -6.02441 -10.2637 -8.86621 -15.5078c-2.79785 -5.16016 -5.50488 -10.3574 -7.99219 -15.6738c-0.416016 -0.888672 -2.46582 -5.42285 -3.84863 -8.47363c1.41113 2.86621 -3.2041 -9.09668 -3.73633 -10.8057
c-1.44238 -4.64648 -2.75 -9.33105 -3.91992 -14.0527c-2.40625 -9.70996 -3.77344 -19.5361 -5.62012 -29.3496c-0.0654297 -0.347656 -0.118164 -0.635742 -0.174805 -0.926758c-0.222656 -2.60938 -0.445312 -5.21875 -0.567383 -7.83203
c-0.322266 -6.89648 -0.300781 -13.8057 0.12793 -20.6992c0.222656 -3.55469 0.610352 -7.07812 0.979492 -10.6172c0.00292969 -0.0341797 0.00585938 -0.0595703 0.00878906 -0.09375c1.08594 -4.63086 2.1377 -9.24023 3.56445 -13.79
c1.37988 -4.39648 2.97266 -8.73633 4.78125 -12.9766c-0.0654297 0.15918 0.150391 -0.337891 0.472656 -1.06738c-0.741211 0.820312 -0.957031 0.754883 0.708008 -1.59863c0.707031 -1.58984 1.47656 -3.28613 1.52637 -3.26758
c0.238281 0.0908203 0.323242 0.303711 0.310547 0.584961c3.87988 -5.69531 7.45312 -11.4785 11.9434 -16.8018c-0.181641 0.015625 -0.363281 0.0185547 -0.535156 -0.0224609c0.166016 0.0371094 0.557617 -0.222656 1.06152 -0.641602
c0.015625 -0.0185547 0.0283203 -0.0371094 0.0439453 -0.0556641c1.03906 -1.19824 2.20898 -2.33105 3.2041 -3.55762c1.43359 -1.76465 1.72754 -1.6709 1.38672 -0.854492c0.0566406 -0.0527344 0.141602 -0.137695 0.182617 -0.171875
c5.62305 -4.72168 26.6104 -16.3809 3.33203 -4.32129c16.0625 -8.32031 27.4434 -19.1885 28.041 -38.5928c0.532227 -17.2764 -9.78809 -38.3301 -25.0811 -47.1543c-1.75195 -1.01074 -3.45117 -2.16504 -5.06543 -3.37305
c-1.59863 -1.19824 -3.18164 -2.41504 -4.74609 -3.6543c0.337891 0.462891 0.663086 0.897461 1.03516 1.41992c-0.37207 -0.522461 -0.785156 -1.02344 -1.18262 -1.5332c-0.296875 -0.234375 -0.603516 -0.453125 -0.897461 -0.691406
c-3.18555 -2.58789 -5.11621 -5.47266 -4.99707 -5.9541c-4.0332 -4.12793 -8.34863 -8.12109 -11.8594 -12.499c-3.33887 -4.16211 -11.7842 -19.7773 -4.34277 -5.11426c-3.01367 -5.94238 -7.36035 -11.5186 -10.7021 -17.3203
c-7.31641 -12.6924 -13.3994 -25.8633 -19.2139 -39.291c-0.269531 -0.625977 -0.500977 -1.15527 -0.713867 -1.63672c-0.0722656 -0.231445 -0.15332 -0.485352 -0.25 -0.786133c-1.21387 -3.75781 -2.60352 -7.46289 -3.81445 -11.2246
c-2.5752 -8.00488 -4.88477 -16.0938 -6.96582 -24.2393c-9.64746 -37.7734 -13.8252 -72.0947 -12.5205 -111.016c1.28027 -38.2363 8.05859 -75.1641 20.6885 -111.266c9.98242 -28.5449 25.1377 -57.5996 48.9414 -77.0225
c61.3584 -50.0674 141.776 -3.20996 185.351 48.1152c50.9375 60 83.5254 138.271 103.299 213.724c4.22754 16.1309 32.916 16.6973 28.2314 -2.15332c-22.9307 -92.2715 -64.8281 -192.541 -136.973 -257.348c-58.3193 -52.3896 -147.384 -73.1611 -219.5 -36.3672
c-78.5654 40.082 -117.884 127.641 -126.095 211.839zM103.329 462.01c0.666992 -6.31836 0.360352 -2.59082 0 0zM177.539 645.675c1.06055 1.06738 1.85254 1.90234 0 0z" />
    <glyph glyph-name="E" unicode="&#xcb;" horiz-adv-x="416" 
d="M-44.0928 71.1104c-7.82324 80.2305 9.66309 171.199 51.9707 240.549c7.77637 12.7549 16.7354 26.3076 26.8369 39.1064c-11.625 14.4131 -20.9248 30.8389 -27.6338 48.6445c-43.3457 115.018 30.6797 270.434 144.077 314.168
c29.8154 11.5 66.8467 22.5088 98.2168 11.6758c33.9492 -11.7256 49.4639 -43.1309 56.167 -76.3447c15.7021 -77.8145 -0.116211 -155.025 -17.9717 -230.966c-3.99902 -16.9951 -33.7734 -17.5518 -29.4551 2.24707c15.6211 71.6279 34.3525 150.738 10.749 222.688
c-7.08496 21.5947 -25.6572 51.0625 -52.3125 35.4473c-11.8438 -6.9375 -20.7148 -15.79 -28.3818 -23.084c-3.72363 -3.54199 -7.64746 -6.875 -11.4053 -10.3828c-0.431641 -0.447266 -0.925781 -0.957031 -1.54492 -1.5957
c-4.02148 -4.15527 -8.08984 -8.23535 -11.9141 -12.5791c-7.88574 -8.95605 -15.2578 -18.4844 -22.4961 -27.9688c-0.422852 -0.553711 -1.53711 -2.16211 -2.41016 -3.42676c-0.634766 -1.01074 -1.26953 -2.02441 -1.53223 -2.46582
c-3.04199 -5.12891 -6.02441 -10.2637 -8.86621 -15.5078c-2.79785 -5.16016 -5.50488 -10.3574 -7.99219 -15.6738c-0.416016 -0.888672 -2.46582 -5.42285 -3.84863 -8.47363c1.41113 2.86621 -3.2041 -9.09668 -3.73633 -10.8057
c-1.44238 -4.64648 -2.75 -9.33105 -3.91992 -14.0527c-2.40625 -9.70996 -3.77344 -19.5361 -5.62012 -29.3496c-0.0654297 -0.347656 -0.118164 -0.635742 -0.174805 -0.926758c-0.222656 -2.60938 -0.445312 -5.21875 -0.567383 -7.83203
c-0.322266 -6.89648 -0.300781 -13.8057 0.12793 -20.6992c0.222656 -3.55469 0.610352 -7.07812 0.979492 -10.6172c0.00292969 -0.0341797 0.00585938 -0.0595703 0.00878906 -0.09375c1.08594 -4.63086 2.1377 -9.24023 3.56445 -13.79
c1.37988 -4.39648 2.97266 -8.73633 4.78125 -12.9766c-0.0654297 0.15918 0.150391 -0.337891 0.472656 -1.06738c-0.741211 0.820312 -0.957031 0.754883 0.708008 -1.59863c0.707031 -1.58984 1.47656 -3.28613 1.52637 -3.26758
c0.238281 0.0908203 0.323242 0.303711 0.310547 0.584961c3.87988 -5.69531 7.45312 -11.4785 11.9434 -16.8018c-0.181641 0.015625 -0.363281 0.0185547 -0.535156 -0.0224609c0.166016 0.0371094 0.557617 -0.222656 1.06152 -0.641602
c0.015625 -0.0185547 0.0283203 -0.0371094 0.0439453 -0.0556641c1.03906 -1.19824 2.20898 -2.33105 3.2041 -3.55762c1.43359 -1.76465 1.72754 -1.6709 1.38672 -0.854492c0.0566406 -0.0527344 0.141602 -0.137695 0.182617 -0.171875
c5.62305 -4.72168 26.6104 -16.3809 3.33203 -4.32129c16.0625 -8.32031 27.4434 -19.1885 28.041 -38.5928c0.532227 -17.2764 -9.78809 -38.3301 -25.0811 -47.1543c-1.75195 -1.01074 -3.45117 -2.16504 -5.06543 -3.37305
c-1.59863 -1.19824 -3.18164 -2.41504 -4.74609 -3.6543c0.337891 0.462891 0.663086 0.897461 1.03516 1.41992c-0.37207 -0.522461 -0.785156 -1.02344 -1.18262 -1.5332c-0.296875 -0.234375 -0.603516 -0.453125 -0.897461 -0.691406
c-3.18555 -2.58789 -5.11621 -5.47266 -4.99707 -5.9541c-4.0332 -4.12793 -8.34863 -8.12109 -11.8594 -12.499c-3.33887 -4.16211 -11.7842 -19.7773 -4.34277 -5.11426c-3.01367 -5.94238 -7.36035 -11.5186 -10.7021 -17.3203
c-7.31641 -12.6924 -13.3994 -25.8633 -19.2139 -39.291c-0.269531 -0.625977 -0.500977 -1.15527 -0.713867 -1.63672c-0.0722656 -0.231445 -0.15332 -0.485352 -0.25 -0.786133c-1.21387 -3.75781 -2.60352 -7.46289 -3.81445 -11.2246
c-2.5752 -8.00488 -4.88477 -16.0938 -6.96582 -24.2393c-9.64746 -37.7734 -13.8252 -72.0947 -12.5205 -111.016c1.28027 -38.2363 8.05859 -75.1641 20.6885 -111.266c9.98242 -28.5449 25.1377 -57.5996 48.9414 -77.0225
c61.3584 -50.0674 141.776 -3.20996 185.351 48.1152c50.9375 60 83.5254 138.271 103.299 213.724c4.22754 16.1309 32.916 16.6973 28.2314 -2.15332c-22.9307 -92.2715 -64.8281 -192.541 -136.973 -257.348c-58.3193 -52.3896 -147.384 -73.1611 -219.5 -36.3672
c-78.5654 40.082 -117.884 127.641 -126.095 211.839zM103.329 462.01c0.666992 -6.31836 0.360352 -2.59082 0 0zM177.539 645.675c1.06055 1.06738 1.85254 1.90234 0 0z" />
    <glyph glyph-name="E" unicode="&#xca;" horiz-adv-x="416" 
d="M-44.0928 71.1104c-7.82324 80.2305 9.66309 171.199 51.9707 240.549c7.77637 12.7549 16.7354 26.3076 26.8369 39.1064c-11.625 14.4131 -20.9248 30.8389 -27.6338 48.6445c-43.3457 115.018 30.6797 270.434 144.077 314.168
c29.8154 11.5 66.8467 22.5088 98.2168 11.6758c33.9492 -11.7256 49.4639 -43.1309 56.167 -76.3447c15.7021 -77.8145 -0.116211 -155.025 -17.9717 -230.966c-3.99902 -16.9951 -33.7734 -17.5518 -29.4551 2.24707c15.6211 71.6279 34.3525 150.738 10.749 222.688
c-7.08496 21.5947 -25.6572 51.0625 -52.3125 35.4473c-11.8438 -6.9375 -20.7148 -15.79 -28.3818 -23.084c-3.72363 -3.54199 -7.64746 -6.875 -11.4053 -10.3828c-0.431641 -0.447266 -0.925781 -0.957031 -1.54492 -1.5957
c-4.02148 -4.15527 -8.08984 -8.23535 -11.9141 -12.5791c-7.88574 -8.95605 -15.2578 -18.4844 -22.4961 -27.9688c-0.422852 -0.553711 -1.53711 -2.16211 -2.41016 -3.42676c-0.634766 -1.01074 -1.26953 -2.02441 -1.53223 -2.46582
c-3.04199 -5.12891 -6.02441 -10.2637 -8.86621 -15.5078c-2.79785 -5.16016 -5.50488 -10.3574 -7.99219 -15.6738c-0.416016 -0.888672 -2.46582 -5.42285 -3.84863 -8.47363c1.41113 2.86621 -3.2041 -9.09668 -3.73633 -10.8057
c-1.44238 -4.64648 -2.75 -9.33105 -3.91992 -14.0527c-2.40625 -9.70996 -3.77344 -19.5361 -5.62012 -29.3496c-0.0654297 -0.347656 -0.118164 -0.635742 -0.174805 -0.926758c-0.222656 -2.60938 -0.445312 -5.21875 -0.567383 -7.83203
c-0.322266 -6.89648 -0.300781 -13.8057 0.12793 -20.6992c0.222656 -3.55469 0.610352 -7.07812 0.979492 -10.6172c0.00292969 -0.0341797 0.00585938 -0.0595703 0.00878906 -0.09375c1.08594 -4.63086 2.1377 -9.24023 3.56445 -13.79
c1.37988 -4.39648 2.97266 -8.73633 4.78125 -12.9766c-0.0654297 0.15918 0.150391 -0.337891 0.472656 -1.06738c-0.741211 0.820312 -0.957031 0.754883 0.708008 -1.59863c0.707031 -1.58984 1.47656 -3.28613 1.52637 -3.26758
c0.238281 0.0908203 0.323242 0.303711 0.310547 0.584961c3.87988 -5.69531 7.45312 -11.4785 11.9434 -16.8018c-0.181641 0.015625 -0.363281 0.0185547 -0.535156 -0.0224609c0.166016 0.0371094 0.557617 -0.222656 1.06152 -0.641602
c0.015625 -0.0185547 0.0283203 -0.0371094 0.0439453 -0.0556641c1.03906 -1.19824 2.20898 -2.33105 3.2041 -3.55762c1.43359 -1.76465 1.72754 -1.6709 1.38672 -0.854492c0.0566406 -0.0527344 0.141602 -0.137695 0.182617 -0.171875
c5.62305 -4.72168 26.6104 -16.3809 3.33203 -4.32129c16.0625 -8.32031 27.4434 -19.1885 28.041 -38.5928c0.532227 -17.2764 -9.78809 -38.3301 -25.0811 -47.1543c-1.75195 -1.01074 -3.45117 -2.16504 -5.06543 -3.37305
c-1.59863 -1.19824 -3.18164 -2.41504 -4.74609 -3.6543c0.337891 0.462891 0.663086 0.897461 1.03516 1.41992c-0.37207 -0.522461 -0.785156 -1.02344 -1.18262 -1.5332c-0.296875 -0.234375 -0.603516 -0.453125 -0.897461 -0.691406
c-3.18555 -2.58789 -5.11621 -5.47266 -4.99707 -5.9541c-4.0332 -4.12793 -8.34863 -8.12109 -11.8594 -12.499c-3.33887 -4.16211 -11.7842 -19.7773 -4.34277 -5.11426c-3.01367 -5.94238 -7.36035 -11.5186 -10.7021 -17.3203
c-7.31641 -12.6924 -13.3994 -25.8633 -19.2139 -39.291c-0.269531 -0.625977 -0.500977 -1.15527 -0.713867 -1.63672c-0.0722656 -0.231445 -0.15332 -0.485352 -0.25 -0.786133c-1.21387 -3.75781 -2.60352 -7.46289 -3.81445 -11.2246
c-2.5752 -8.00488 -4.88477 -16.0938 -6.96582 -24.2393c-9.64746 -37.7734 -13.8252 -72.0947 -12.5205 -111.016c1.28027 -38.2363 8.05859 -75.1641 20.6885 -111.266c9.98242 -28.5449 25.1377 -57.5996 48.9414 -77.0225
c61.3584 -50.0674 141.776 -3.20996 185.351 48.1152c50.9375 60 83.5254 138.271 103.299 213.724c4.22754 16.1309 32.916 16.6973 28.2314 -2.15332c-22.9307 -92.2715 -64.8281 -192.541 -136.973 -257.348c-58.3193 -52.3896 -147.384 -73.1611 -219.5 -36.3672
c-78.5654 40.082 -117.884 127.641 -126.095 211.839zM103.329 462.01c0.666992 -6.31836 0.360352 -2.59082 0 0zM177.539 645.675c1.06055 1.06738 1.85254 1.90234 0 0z" />
    <glyph glyph-name="E" unicode="&#xc9;" horiz-adv-x="416" 
d="M-44.0928 71.1104c-7.82324 80.2305 9.66309 171.199 51.9707 240.549c7.77637 12.7549 16.7354 26.3076 26.8369 39.1064c-11.625 14.4131 -20.9248 30.8389 -27.6338 48.6445c-43.3457 115.018 30.6797 270.434 144.077 314.168
c29.8154 11.5 66.8467 22.5088 98.2168 11.6758c33.9492 -11.7256 49.4639 -43.1309 56.167 -76.3447c15.7021 -77.8145 -0.116211 -155.025 -17.9717 -230.966c-3.99902 -16.9951 -33.7734 -17.5518 -29.4551 2.24707c15.6211 71.6279 34.3525 150.738 10.749 222.688
c-7.08496 21.5947 -25.6572 51.0625 -52.3125 35.4473c-11.8438 -6.9375 -20.7148 -15.79 -28.3818 -23.084c-3.72363 -3.54199 -7.64746 -6.875 -11.4053 -10.3828c-0.431641 -0.447266 -0.925781 -0.957031 -1.54492 -1.5957
c-4.02148 -4.15527 -8.08984 -8.23535 -11.9141 -12.5791c-7.88574 -8.95605 -15.2578 -18.4844 -22.4961 -27.9688c-0.422852 -0.553711 -1.53711 -2.16211 -2.41016 -3.42676c-0.634766 -1.01074 -1.26953 -2.02441 -1.53223 -2.46582
c-3.04199 -5.12891 -6.02441 -10.2637 -8.86621 -15.5078c-2.79785 -5.16016 -5.50488 -10.3574 -7.99219 -15.6738c-0.416016 -0.888672 -2.46582 -5.42285 -3.84863 -8.47363c1.41113 2.86621 -3.2041 -9.09668 -3.73633 -10.8057
c-1.44238 -4.64648 -2.75 -9.33105 -3.91992 -14.0527c-2.40625 -9.70996 -3.77344 -19.5361 -5.62012 -29.3496c-0.0654297 -0.347656 -0.118164 -0.635742 -0.174805 -0.926758c-0.222656 -2.60938 -0.445312 -5.21875 -0.567383 -7.83203
c-0.322266 -6.89648 -0.300781 -13.8057 0.12793 -20.6992c0.222656 -3.55469 0.610352 -7.07812 0.979492 -10.6172c0.00292969 -0.0341797 0.00585938 -0.0595703 0.00878906 -0.09375c1.08594 -4.63086 2.1377 -9.24023 3.56445 -13.79
c1.37988 -4.39648 2.97266 -8.73633 4.78125 -12.9766c-0.0654297 0.15918 0.150391 -0.337891 0.472656 -1.06738c-0.741211 0.820312 -0.957031 0.754883 0.708008 -1.59863c0.707031 -1.58984 1.47656 -3.28613 1.52637 -3.26758
c0.238281 0.0908203 0.323242 0.303711 0.310547 0.584961c3.87988 -5.69531 7.45312 -11.4785 11.9434 -16.8018c-0.181641 0.015625 -0.363281 0.0185547 -0.535156 -0.0224609c0.166016 0.0371094 0.557617 -0.222656 1.06152 -0.641602
c0.015625 -0.0185547 0.0283203 -0.0371094 0.0439453 -0.0556641c1.03906 -1.19824 2.20898 -2.33105 3.2041 -3.55762c1.43359 -1.76465 1.72754 -1.6709 1.38672 -0.854492c0.0566406 -0.0527344 0.141602 -0.137695 0.182617 -0.171875
c5.62305 -4.72168 26.6104 -16.3809 3.33203 -4.32129c16.0625 -8.32031 27.4434 -19.1885 28.041 -38.5928c0.532227 -17.2764 -9.78809 -38.3301 -25.0811 -47.1543c-1.75195 -1.01074 -3.45117 -2.16504 -5.06543 -3.37305
c-1.59863 -1.19824 -3.18164 -2.41504 -4.74609 -3.6543c0.337891 0.462891 0.663086 0.897461 1.03516 1.41992c-0.37207 -0.522461 -0.785156 -1.02344 -1.18262 -1.5332c-0.296875 -0.234375 -0.603516 -0.453125 -0.897461 -0.691406
c-3.18555 -2.58789 -5.11621 -5.47266 -4.99707 -5.9541c-4.0332 -4.12793 -8.34863 -8.12109 -11.8594 -12.499c-3.33887 -4.16211 -11.7842 -19.7773 -4.34277 -5.11426c-3.01367 -5.94238 -7.36035 -11.5186 -10.7021 -17.3203
c-7.31641 -12.6924 -13.3994 -25.8633 -19.2139 -39.291c-0.269531 -0.625977 -0.500977 -1.15527 -0.713867 -1.63672c-0.0722656 -0.231445 -0.15332 -0.485352 -0.25 -0.786133c-1.21387 -3.75781 -2.60352 -7.46289 -3.81445 -11.2246
c-2.5752 -8.00488 -4.88477 -16.0938 -6.96582 -24.2393c-9.64746 -37.7734 -13.8252 -72.0947 -12.5205 -111.016c1.28027 -38.2363 8.05859 -75.1641 20.6885 -111.266c9.98242 -28.5449 25.1377 -57.5996 48.9414 -77.0225
c61.3584 -50.0674 141.776 -3.20996 185.351 48.1152c50.9375 60 83.5254 138.271 103.299 213.724c4.22754 16.1309 32.916 16.6973 28.2314 -2.15332c-22.9307 -92.2715 -64.8281 -192.541 -136.973 -257.348c-58.3193 -52.3896 -147.384 -73.1611 -219.5 -36.3672
c-78.5654 40.082 -117.884 127.641 -126.095 211.839zM103.329 462.01c0.666992 -6.31836 0.360352 -2.59082 0 0zM177.539 645.675c1.06055 1.06738 1.85254 1.90234 0 0z" />
    <glyph glyph-name="F" unicode="F" horiz-adv-x="457" 
d="M46.79 623.695c-20.6123 -3.00098 -44.5176 0.224609 -55.4229 20.208c-13.1963 24.1855 -6.32422 51.5039 11.1904 71.3398c37.125 42.0479 100.852 53.6826 152.516 35.248c31.2607 -11.1523 56.291 -30.8818 76.2363 -55.3369
c45.2334 11.6094 91.0264 21.3447 137.736 24.1865c47.8867 2.91016 104.686 1.73633 148.106 -21.373c43.1367 -22.959 44.0225 -69.0811 38.79 -112.151c-1.74023 -14.3193 -26.1104 -14.542 -24.1611 1.84277c3.44531 28.9424 5.77637 64.2686 -20.5244 83.6387
c-25.1562 18.5283 -62.4316 22.1484 -92.582 24.1133c-58.2441 3.79883 -116.054 -6.7373 -172.452 -20.8027c9.40625 -14.5352 17.4111 -30.1562 24.1357 -46.2969c23.1592 -55.5908 32.0459 -119.374 38.8018 -178.785
c6.84082 -60.1748 8.19238 -120.685 8.68066 -181.191c0.181641 -22.2832 0.394531 -44.5664 0.600586 -66.8525c43.1807 11.5254 89.0674 15.2773 129.105 -7.83789c14.125 -8.15527 -5.12598 -28.8428 -18.3252 -21.2227
c-33.9863 19.6201 -73.7588 13.8525 -110.556 3.69238c0.27832 -30.2656 0.550781 -60.5312 0.750977 -90.7969c0.431641 -64.8721 -0.757812 -129.394 -23.1035 -190.989c-4.96582 -13.6904 -15.4053 -23.7354 -30.4658 -24.5801
c-13.8154 -0.776367 -24.0293 8.32031 -25.3965 21.9043c-8.65527 86.0166 -13.2988 172.202 -16.5537 258.5c-24.3105 -4.00879 -48.8906 -4.40918 -73.7119 2.58789c-16.5352 4.66211 -1.95312 28.3066 12.6357 24.1943
c20.165 -5.68555 40.2549 -5.40723 60.1816 -2.15918c-1.13867 32.6475 -2.11816 65.3076 -3.06934 97.9795c-3.16699 108.641 -8.39551 220.771 -47.4141 323.44c-6.74707 17.752 -16.0098 35.2539 -27.8477 50.1143c-32.3652 -9.26855 -64.959 -17.8203 -97.8818 -22.6143
zM50.5723 678.713c-6.37109 -3.77344 -12.8018 -11.2295 -19.3135 -17.2471c-1.12695 -1.03906 -1.87207 -1.64258 -2.36035 -1.99023c0.488281 0.106445 1.12695 0.0126953 1.63379 -0.788086c0.910156 -1.44238 1.04492 -2.625 2.48145 -3.83594
c3.12305 -2.63477 9.00293 -2.37207 12.8711 -2.5c25.2119 -0.820312 53.04 8.38867 77.4199 14.1523c0.34375 0.0810547 0.68457 0.174805 1.02832 0.255859c-9.21875 7.25391 -19.4824 12.9678 -30.8818 16.4287c-12.9922 3.94238 -30.5908 2.79688 -42.8789 -4.47559z
" />
    <glyph glyph-name="G" unicode="G" horiz-adv-x="489" 
d="M83.4521 101.812c-129.985 18.8438 -125.027 182.823 -109.419 280.684c17.248 108.149 63.501 216.718 135.761 299.646c31.7148 36.3965 83.0938 79.8457 134.476 55.1025c42.2383 -20.3398 56.0977 -75.3955 53.2842 -118.238
c-2.90723 -44.2939 -19.8271 -87.2959 -47.3018 -122.121c-17.9434 -22.7432 -68.1582 -77.0664 -100.427 -51.7041c-11.9756 9.41309 5.6543 28.1699 16.9004 19.5703c13.1211 -10.0293 43.9502 22.8682 52.2178 31.7305c14.2285 15.252 25.6904 32.7129 34.2861 51.7012
c16.8193 37.1504 25.002 91.5459 3.51367 128.518c-8.56445 14.7324 -26.6143 22.6836 -42.9395 16.6162c-14.251 -5.29785 -25.1719 -18.1963 -34.5879 -29.6367c-23.5098 -28.5664 -40.8145 -62.3936 -56.251 -95.8203
c-33.4453 -72.4131 -55.2842 -157.669 -57.2432 -237.887c-1.05762 -43.3086 1.78027 -77.0635 14.7979 -116.319c3.48926 -10.5303 15.665 -27.4531 25.791 -35.001c10.7148 -7.98926 22.1709 -10.3389 36.8311 -6.83398c35.9297 8.58984 63.1914 36.5117 84.8711 64.916
c17.0508 22.3398 31.167 46.9795 44.5293 71.8564c5.97656 18.8066 13.2705 35.6357 33.582 43.459c7.59766 2.92578 15.4365 1.77148 20.9062 -4.49902c9.52832 -10.9238 7.97266 -21.5322 9.60938 -35.0752c1.51758 -12.5703 5.80762 -24.543 7.49707 -37.1885
c3.67383 -27.4805 8.13965 -54.6982 10.875 -82.3135c2.80957 -28.4102 4.14844 -57.3896 3.94531 -86.3604c46.5195 7.96387 92.7285 17.4551 138.831 27.5527c19.0479 4.1748 16.6982 -22.3457 0.685547 -26.3828c-46.3379 -11.6787 -93.1953 -21.3047 -140.25 -29.6348
c-0.888672 -20.6592 -2.54395 -41.2217 -5.11035 -61.4736c-5.66699 -44.7266 -20.1582 -86.8301 -48.4805 -122.347c-23.751 -29.7842 -54.9873 -55.3184 -89.834 -70.9082c-39.2314 -17.5518 -83.751 -21.2881 -122.547 -0.972656
c-36.1113 18.9072 -61.2861 55.7754 -57.9629 97.4375c7.17578 89.9619 83.9229 142.398 165.346 161.39c19.1943 4.47754 38.6553 7.79102 58.2129 10.6758c0.143555 2.74707 0.306641 5.49805 0.431641 8.24512c1.94922 42.4482 2.06543 84.9834 3.30762 127.463
c-9.26562 -14.6602 -19.2725 -28.8262 -30.3223 -42.2441c-36.1211 -43.8594 -85.6348 -92.6133 -147.812 -83.6016zM253.769 39.3008c-0.375977 -3.06348 1.33984 13.4814 1.19629 11.8945c0.34375 3.78027 0.628906 7.56348 0.932617 11.3438
c-16.6914 -2.62891 -33.3203 -5.56055 -49.7734 -9.27148c-35.7451 -8.06055 -72.2637 -21.5693 -97.9766 -48.7842c-25.1436 -26.6143 -33.208 -61.3486 -16.3291 -94.6748c11.7373 -23.1787 38.9863 -38.5215 64.0205 -34.9922
c15.959 2.25 24.0576 9.98535 37.1787 20.1611c0.34375 0.269531 1.00684 0.870117 1.6543 1.4707c2.63184 2.60645 5.2168 5.2627 7.68848 8.02539c4.44629 4.96875 8.40137 10.2285 12.4785 15.4922c0.0126953 0.0185547 0.0185547 0.0283203 0.03125 0.0439453
c1.02344 1.59277 2.03711 3.18848 3.0166 4.80957c1.16699 1.92773 2.30566 3.87695 3.41309 5.83887c2.75684 4.88477 5.33496 9.88184 7.93848 14.8477c2.78809 5.31641 5.42285 10.6895 7.74805 16.2246c0.457031 1.26074 1.52734 4.08008 1.66211 4.49023
c1.68945 5.14746 3.4668 10.2295 4.92773 15.4551c5.2666 18.8408 7.9707 38.2266 10.1924 57.625z" />
    <glyph glyph-name="H" unicode="H" horiz-adv-x="538" 
d="M42.0469 134.168c-33.9961 7.23828 -65.4961 22.6514 -91.5596 51.4092c-12.1416 13.4023 14.2881 32.7783 26.4639 19.2256c17.333 -19.2949 39.5039 -31.6055 63.5273 -38.9248c-2.34375 55.4062 -2.9668 110.885 -2.02148 166.429
c1.88965 111.128 6.07031 225.958 29.665 334.824c5.06348 23.3633 28.2354 40.0078 51.1787 41.2939c20.6807 1.1582 43.6211 -13.7998 42.6602 -36.7998c-2.58203 -61.7021 -10.0488 -123.007 -14.082 -184.628c-7.05664 -107.837 -9.94824 -215.773 -6.43457 -323.811
c0.0498047 -1.48047 0.109375 -2.96094 0.15918 -4.44141c44.5137 4.07129 89.0273 14.2158 132.699 21.6729c21.5537 3.67969 43.1797 7.83496 64.8496 11.875c-3.04492 44.6729 -5.06934 89.4336 -6.38965 134.254c-3.23828 109.814 -4.90039 220.186 1.71191 329.896
c1.68066 27.8779 20.957 49.2285 48.4414 54.877c24.8398 5.10352 49.8203 -12.4014 50.8496 -38.1201c2.45312 -61.2676 1.86523 -122.595 1.60254 -183.899c-0.400391 -93.8584 1.33301 -187.569 6.07422 -281.262c46.2188 4.38086 88.8262 -7.13184 119.239 -43.9629
c10.0859 -12.2139 -12.6201 -28.4668 -22.9023 -16.6387c-26.1357 30.0625 -59.7783 35.2598 -94.7979 32.6934c0.269531 -4.72168 0.503906 -9.44336 0.789062 -14.165c3.2793 -54.2705 8.02637 -108.234 13.2305 -162.345
c2.60059 -27.0049 6.23633 -53.9756 8.52734 -80.9932c1.19238 -14.0752 1.91211 -28.2314 2.5752 -42.3408c0.328125 -6.98145 1.30469 -14.2354 1.10742 -21.207c-0.18457 -6.49316 -2.59082 -12.5205 -3.1543 -18.876
c-1.1582 -13.0771 -8.20215 -24.3799 -20.6689 -29.6055c-10.001 -4.19336 -26.2578 -3.59863 -32.5039 6.99707c-4.91016 8.32422 -10.7871 14.7207 -14.542 23.8613c-2.61328 6.36523 -4.77539 12.9805 -7.05371 19.4707
c-5.2041 14.8291 -10.1104 29.9961 -13.5928 45.3291c-6.99023 30.7881 -13.0049 61.9834 -17.7861 93.1885c-8.37695 54.6865 -14.3818 109.576 -18.6973 164.61c-38.3984 -6.69922 -76.8008 -13.3984 -115.199 -20.1016
c-26.6895 -4.65625 -54.9746 -9.69141 -83.4229 -12.627c1.67773 -44.4258 3.82422 -88.792 6.65039 -133.187c1.68652 -26.5107 3.1543 -53.0371 4.8877 -79.5479c0.935547 -14.332 0.782227 -28.8203 0.782227 -43.1895c0 -14.1562 -3.22949 -27.2646 -4.63184 -41.0303
c-2.77539 -27.249 -42.9893 -48.2773 -56.7236 -16.5693c-3.57715 8.25488 -8.76855 15.1738 -11.7725 23.8916c-2.26562 6.57129 -4.02734 13.2334 -5.77344 19.958c-4.16211 16.0186 -7.5791 31.874 -10.2607 48.2119c-5.10352 31.0947 -9.89746 62.2246 -13.249 93.5635
c-4.65625 43.5244 -8.08008 87.1084 -10.4521 130.739z" />
    <glyph glyph-name="I" unicode="I" horiz-adv-x="374" 
d="M-0.962891 648.852c-19.6924 -2.09082 -18.1328 25.3164 -0.700195 27.166c23.5254 2.49707 46.9443 7.71973 70.2197 13.0303c5.5918 20.9756 23.4004 36.5811 45.3672 41.0967c18.5283 3.80859 37.6357 -5.51367 45.6436 -21.5479
c14.9453 3.14453 29.8936 6.28906 44.8418 9.4375c19.4326 4.08984 17.6553 -23.6006 0.704102 -27.168c-13.7969 -2.9043 -27.5908 -5.80469 -41.3848 -8.70898c1.84277 -80.4365 2.07715 -160.823 3.07812 -241.279c1.76465 -141.723 1.27344 -285.442 28.085 -425.119
c5.29492 -27.5781 12.4199 -59.4746 35.3506 -78.1748c12.1699 -9.92285 24.6494 -14.8857 38.0361 -4.35254c10.6143 8.35156 18.3281 20.0078 25.1562 31.502c35.0977 59.0732 60.667 124.224 78.1562 190.561c3.80469 14.4385 29.2393 15.1738 25.3809 -1.93652
c-9.46875 -41.9971 -22.3955 -82.8926 -39.2617 -122.512c-14.876 -34.9375 -31.2979 -72.71 -55.4463 -102.394c-20.0205 -24.6113 -52.1016 -41.209 -84.2393 -38.9248c-37.3379 2.65332 -66.0576 28.4102 -83.6318 59.834
c-38.8496 69.4629 -52.3652 151.596 -59.1211 229.961c-13.7842 159.879 -13.418 321.532 -8.99316 481.88c-22.293 -5.07227 -44.7139 -9.95996 -67.2412 -12.3506z" />
    <glyph glyph-name="I" unicode="&#xcf;" horiz-adv-x="374" 
d="M-0.962891 648.852c-19.6924 -2.09082 -18.1328 25.3164 -0.700195 27.166c23.5254 2.49707 46.9443 7.71973 70.2197 13.0303c5.5918 20.9756 23.4004 36.5811 45.3672 41.0967c18.5283 3.80859 37.6357 -5.51367 45.6436 -21.5479
c14.9453 3.14453 29.8936 6.28906 44.8418 9.4375c19.4326 4.08984 17.6553 -23.6006 0.704102 -27.168c-13.7969 -2.9043 -27.5908 -5.80469 -41.3848 -8.70898c1.84277 -80.4365 2.07715 -160.823 3.07812 -241.279c1.76465 -141.723 1.27344 -285.442 28.085 -425.119
c5.29492 -27.5781 12.4199 -59.4746 35.3506 -78.1748c12.1699 -9.92285 24.6494 -14.8857 38.0361 -4.35254c10.6143 8.35156 18.3281 20.0078 25.1562 31.502c35.0977 59.0732 60.667 124.224 78.1562 190.561c3.80469 14.4385 29.2393 15.1738 25.3809 -1.93652
c-9.46875 -41.9971 -22.3955 -82.8926 -39.2617 -122.512c-14.876 -34.9375 -31.2979 -72.71 -55.4463 -102.394c-20.0205 -24.6113 -52.1016 -41.209 -84.2393 -38.9248c-37.3379 2.65332 -66.0576 28.4102 -83.6318 59.834
c-38.8496 69.4629 -52.3652 151.596 -59.1211 229.961c-13.7842 159.879 -13.418 321.532 -8.99316 481.88c-22.293 -5.07227 -44.7139 -9.95996 -67.2412 -12.3506z" />
    <glyph glyph-name="I" unicode="&#xce;" horiz-adv-x="374" 
d="M-0.962891 648.852c-19.6924 -2.09082 -18.1328 25.3164 -0.700195 27.166c23.5254 2.49707 46.9443 7.71973 70.2197 13.0303c5.5918 20.9756 23.4004 36.5811 45.3672 41.0967c18.5283 3.80859 37.6357 -5.51367 45.6436 -21.5479
c14.9453 3.14453 29.8936 6.28906 44.8418 9.4375c19.4326 4.08984 17.6553 -23.6006 0.704102 -27.168c-13.7969 -2.9043 -27.5908 -5.80469 -41.3848 -8.70898c1.84277 -80.4365 2.07715 -160.823 3.07812 -241.279c1.76465 -141.723 1.27344 -285.442 28.085 -425.119
c5.29492 -27.5781 12.4199 -59.4746 35.3506 -78.1748c12.1699 -9.92285 24.6494 -14.8857 38.0361 -4.35254c10.6143 8.35156 18.3281 20.0078 25.1562 31.502c35.0977 59.0732 60.667 124.224 78.1562 190.561c3.80469 14.4385 29.2393 15.1738 25.3809 -1.93652
c-9.46875 -41.9971 -22.3955 -82.8926 -39.2617 -122.512c-14.876 -34.9375 -31.2979 -72.71 -55.4463 -102.394c-20.0205 -24.6113 -52.1016 -41.209 -84.2393 -38.9248c-37.3379 2.65332 -66.0576 28.4102 -83.6318 59.834
c-38.8496 69.4629 -52.3652 151.596 -59.1211 229.961c-13.7842 159.879 -13.418 321.532 -8.99316 481.88c-22.293 -5.07227 -44.7139 -9.95996 -67.2412 -12.3506z" />
    <glyph glyph-name="I" unicode="&#xcd;" horiz-adv-x="374" 
d="M-0.962891 648.852c-19.6924 -2.09082 -18.1328 25.3164 -0.700195 27.166c23.5254 2.49707 46.9443 7.71973 70.2197 13.0303c5.5918 20.9756 23.4004 36.5811 45.3672 41.0967c18.5283 3.80859 37.6357 -5.51367 45.6436 -21.5479
c14.9453 3.14453 29.8936 6.28906 44.8418 9.4375c19.4326 4.08984 17.6553 -23.6006 0.704102 -27.168c-13.7969 -2.9043 -27.5908 -5.80469 -41.3848 -8.70898c1.84277 -80.4365 2.07715 -160.823 3.07812 -241.279c1.76465 -141.723 1.27344 -285.442 28.085 -425.119
c5.29492 -27.5781 12.4199 -59.4746 35.3506 -78.1748c12.1699 -9.92285 24.6494 -14.8857 38.0361 -4.35254c10.6143 8.35156 18.3281 20.0078 25.1562 31.502c35.0977 59.0732 60.667 124.224 78.1562 190.561c3.80469 14.4385 29.2393 15.1738 25.3809 -1.93652
c-9.46875 -41.9971 -22.3955 -82.8926 -39.2617 -122.512c-14.876 -34.9375 -31.2979 -72.71 -55.4463 -102.394c-20.0205 -24.6113 -52.1016 -41.209 -84.2393 -38.9248c-37.3379 2.65332 -66.0576 28.4102 -83.6318 59.834
c-38.8496 69.4629 -52.3652 151.596 -59.1211 229.961c-13.7842 159.879 -13.418 321.532 -8.99316 481.88c-22.293 -5.07227 -44.7139 -9.95996 -67.2412 -12.3506z" />
    <glyph glyph-name="J" unicode="J" horiz-adv-x="403" 
d="M-13.5713 558.783c-17.6768 0.904297 -9.11523 25.873 6.09277 25.1318c62.916 -3.06641 120.885 18.751 177.151 44.5488c4.61523 18.5439 22.668 33.8799 39.8662 38.8994c11.0332 3.2168 25.3311 2.5 36.5088 -3.05078
c0.553711 0.25 1.10742 0.506836 1.66113 0.756836c38.4268 17.3174 81.3789 36.4648 123.983 39.1934c34.5498 2.20898 74.0596 -16.3564 73.5244 -55.7881c-0.212891 -15.7178 -28.0352 -22.3955 -27.75 -4.68359c0.835938 51.7666 -74.0273 31.126 -101.73 21.8701
c-18.0215 -6.02344 -35.6172 -13.1396 -52.9971 -20.7715c0.12793 -0.472656 0.306641 -0.907227 0.416016 -1.39258c29.2773 -131.938 39.0127 -270.084 38.3584 -405.561c45.5205 -2.5 88.8574 -20.3301 120.9 -59.2109
c10.0391 -12.1816 -12.7734 -28.6943 -22.9023 -16.6406c-26.9141 32.0273 -61.6143 46.9883 -98.2549 49.6416c-0.0498047 -3.30176 -0.0712891 -6.60938 -0.130859 -9.9043c-1.12695 -62.4912 -3.03223 -125.802 -13.9912 -187.46
c-10.0166 -56.3701 -24.7646 -116.643 -57.083 -164.776c-25.9697 -38.6738 -68.9219 -67.2842 -117.222 -55.5869c-51.9707 12.5859 -79.6045 62.2969 -88.3164 111.551c-18.8223 106.409 26.8555 216.674 113.463 280.604
c20.5781 15.1924 44.0508 27.7783 68.8057 36.7783c-1.27051 20.5869 -2.67871 41.1084 -4.09961 61.5137c-7.40332 106.287 -21.6191 211.752 -32.5371 317.661c-58.2695 -25.8291 -118.933 -46.6416 -183.717 -43.3242zM205.706 -32.0371
c8.10449 74.917 6.7627 151.384 2.67578 227.192c-35.2041 -14.4697 -67.5449 -37.0283 -91.4521 -63.1982c-32.3184 -35.3789 -53.8135 -79.0283 -62.6758 -126.104c-8.75586 -46.5127 -7.20996 -103.449 18.4844 -144.777
c21.2256 -34.1338 74.1006 -61.5898 102.604 -20.2744c10.708 15.5273 15.0234 34.1836 19.1074 52.2607c5.54492 24.5586 8.54883 49.8955 11.2559 74.9014z" />
    <glyph glyph-name="K" unicode="K" horiz-adv-x="465" 
d="M13.5596 104.856c-9.92578 59.6084 -15.79 119.463 -18.9814 179.801c-6.49023 122.738 -5.49512 246.953 4.85352 369.44c2.40625 28.498 20.8496 50.1523 49.46 56.0322c24.5898 5.05371 51.9766 -12.5234 51.9238 -38.9219
c-0.241211 -120.131 -7.70801 -240.027 -4.27832 -360.218c0.682617 -23.8789 1.71191 -47.7764 3.06055 -71.6582c6.84668 17.6582 15.5361 34.2432 22.2607 47.248c28.4414 54.9961 61.7744 106.998 88.1104 163.171c26.9619 57.5088 49.208 117.018 66.9912 177.984
c4.04883 13.8877 29.1855 14.3447 24.5664 -1.87402c-17.6992 -62.165 -39.9668 -123.016 -66.9033 -181.782c-23.8975 -52.1396 -53.2148 -100.902 -80.583 -151.189c-15.5371 -28.5449 -69.4502 -120.335 -11.96 -135.042
c27.5713 -7.05664 60.5693 2.84473 87.8936 7.64844c28.8828 5.0791 57.6689 10.8115 86.0762 18.1152c54.752 14.0723 109.901 34.5723 167.179 23.6855c18.7031 -3.55469 9.70996 -30.25 -6.57812 -27.1211c-36.127 6.94727 -71.4717 0.563477 -106.609 -8.57715
c-33.9424 -8.82715 -67.4814 -18.4902 -101.906 -25.3906c-31.042 -6.2207 -62.7227 -12.7139 -94.2588 -15.7832c-22.3955 -2.18066 -49.3535 -1.64551 -67.1182 13.9658c0.360352 -3.7959 0.701172 -7.59766 1.07715 -11.3906
c2.97559 -30.084 6.78027 -60.1182 9.48047 -90.2246c2.29688 -25.6162 8.66504 -57.334 1.69922 -82.3174c-4.19922 -15.0674 -20.4053 -25.2061 -35.7139 -20.4121c-29.6396 9.27832 -40.8389 45.8369 -49.2725 72.2197
c-9.60352 30.0527 -15.2959 61.5234 -20.4688 92.5908z" />
    <glyph glyph-name="L" unicode="L" horiz-adv-x="288" 
d="M-3.13672 -222.295c-43.083 -1.7998 -91.0488 19.3994 -110.819 59.375c-22.2236 44.9326 6.97852 89.4551 38.0205 121.251c32.5098 33.2979 70.6426 59.9023 111.282 82.2266c-5.30762 78.5439 -14.4043 157.069 -20.6504 235.294
c-8.83691 110.706 -19.6611 221.318 -22.0391 332.381c-1.2334 57.5938 93.3135 81.8389 101.384 17.1104c17.0508 -136.754 22.4639 -274.976 31.4541 -412.462c2.78809 -42.6328 5.83301 -85.5977 7.02539 -128.483c16.5039 6.39648 33.0986 12.5986 49.6494 18.9639
c41.3652 15.9062 85.3184 35.5049 106.679 76.8018c7.08496 13.6904 30.4795 7.73242 22.666 -8.02051c-20.4053 -41.1279 -59.4424 -65.9492 -100.145 -84.1768c-25.8135 -11.5625 -52.1807 -21.6445 -78.3438 -32.2461
c0.0498047 -8.74316 0.0244141 -17.4795 -0.144531 -26.2041c-1.16113 -59.9814 -4.23047 -122.297 -26.3105 -178.758c-18.2656 -46.7041 -60.9512 -71.0186 -109.708 -73.0527zM-42.0908 -47.0869c-29.79 -27.7754 -67.8428 -69.9443 -37.0166 -110.634
c12.1074 -15.9844 30.877 -26.7051 50.0283 -31.8311c19.8867 -5.32324 46.8984 -7.75195 59.1807 12.1904c8.30469 13.4873 9.87207 33.1514 10.5635 48.5693c1.11133 24.8184 -0.806641 49.6836 -1.17285 74.4951c-0.319336 21.4482 -1.12988 42.9023 -2.28125 64.3594
c-28.3447 -16.2568 -55.3535 -34.8223 -79.3018 -57.1494z" />
    <glyph glyph-name="M" unicode="M" horiz-adv-x="670" 
d="M18.5391 121.025c-9.84766 57.7715 -16.0566 115.734 -19.3672 174.241c-6.66211 117.747 -9.27148 236.01 -2.15234 353.757c1.62695 26.9395 20.2461 47.5674 46.8066 53.0283c23.6387 4.85938 48.6631 -11.9131 49.1387 -36.834
c2.20898 -115.744 0.563477 -231.61 5.32617 -347.305c2.10645 -51.1445 5.19141 -102.433 10.8398 -153.333c2.38086 25.7383 4.79004 51.4766 7.36816 77.1953c6.58105 65.6045 14.1729 131.144 24.9814 196.2c4.94141 29.7373 10.0762 59.665 20.4121 88.0879
c7.68848 21.1377 19.6514 54.3643 44.6885 60.0371c22.3926 5.07227 43.252 -19.7832 52.3857 -36.9785c15.4775 -29.1396 24.915 -60.4004 32.5693 -92.3779c7.64746 -31.9434 13.1826 -64.5029 17.4355 -97.2568c12.9648 53.3594 29.5439 105.702 54.7783 154.875
c12.0127 23.4131 32.4619 53.8574 63.4004 42.0098c30.457 -11.666 45.7656 -44.9238 56.5742 -73.2998c27.7754 -72.9209 30.4316 -153.593 36.6592 -230.534c2.85742 -35.3291 6.39062 -72.2197 12.6865 -106.441c6.55273 -35.6104 12.3076 -70.9648 26.9746 -104.363
c5.35449 -12.1943 15.8809 -29.8779 31.7959 -24.5615c13.2334 4.42188 25.3779 22.7031 32.9727 33.6211c20.2744 29.1484 31.4336 64.0586 42.5986 97.4189c4.47754 13.3779 29.2891 13.8975 24.1602 -1.84277c-11.8193 -36.2744 -24.1865 -72.7207 -44.4424 -105.312
c-19.6738 -31.6523 -44.3818 -59.1611 -84.1514 -58.8447c-35.2725 0.28125 -68.9961 15.3545 -88.7129 45.2266c-21.3945 32.4121 -32.2002 69.5938 -38.8311 107.42c-13.8125 78.7725 -10.167 159.213 -11.9033 238.839
c-0.826172 37.8857 -3.28223 75.2578 -6.15137 113.019c-0.584961 7.70117 1.98438 43.6436 -9.97852 41.9629c-10.0732 -1.41406 -20.6846 -31.7861 -24.1484 -39.0176c-31.7676 -66.333 -48.8467 -138.94 -66.0352 -210.243
c0.647461 -7.91992 1.25781 -15.8311 1.84277 -23.7266c3.68359 -49.8301 -85.165 -70.7676 -87.5781 -14.7793c-2.86328 66.4023 -4.34961 132.857 -7.28125 199.263c-1.20801 27.3994 -1.83984 55.5342 -6.17969 82.6523
c-1.18555 7.40723 -3.06348 14.6543 -4.10254 22.0859c-0.591797 4.21777 0.0810547 15.7363 -7.13477 13.583c-7.02246 -2.09668 -14.7676 -26.2168 -17.3555 -32.7881c-19.5547 -49.623 -24.5869 -106.428 -31.7744 -158.886
c-14.1406 -103.187 -22.1387 -207.062 -32.5811 -310.661c3.51758 -23.3193 6.4873 -46.667 7.72656 -70.0889c1.45801 -27.6221 -44.1533 -54.002 -61.6924 -26.2334c-30.4229 48.1553 -43.0928 105.604 -52.5684 161.186z" />
    <glyph glyph-name="N" unicode="N" horiz-adv-x="515" 
d="M-11.8203 83.3994c-4.05859 50.043 -7.2627 100.249 -8.00098 150.461c-1.50781 103.605 1.14844 207.546 14.4102 310.392c3.05371 23.6943 30.1055 40.6201 51.8535 41.8369c20.6338 1.1582 44.6133 -13.9844 43.2236 -37.2842
c-5.94238 -99.6035 -13.3896 -198.969 -13.9062 -298.81c-0.143555 -28.082 -0.237305 -56.1514 -0.0654297 -84.2236c9.50977 53.2754 20.2715 106.319 33.2861 158.956c11.7969 47.7148 24.3135 95.9209 42.6816 141.595c12.3857 30.7979 36.7344 91.1699 80.3555 80.4619
c15.4053 -3.78027 28.5107 -19.3672 36.9727 -32.0654c12.708 -19.0723 21.7109 -42.2227 29.6123 -63.6143c17.5264 -47.4609 25.6094 -97.7354 32.9189 -147.637c7.04688 -48.1123 11.8311 -96.5996 19.9668 -144.543c7.55078 -44.5068 18.1436 -95.2129 26.8145 -142.915
c-0.325195 1.79883 2.59082 -9.76953 3.30469 -11.9971c0.725586 -2.26855 2.33984 -6.89355 2.88477 -7.85449c3.70215 -6.52148 8.81543 -8.78418 16.3408 -9.21289c21.0664 -1.20117 36.7686 9.27246 48.6035 26.0635c28.5137 40.4482 42.7012 91.4893 57.4678 138.056
c4.65332 14.6631 31.3145 15.8867 26.6045 -2.03125c-13.7783 -52.418 -27.6631 -107.048 -56.4678 -153.592c-27.5498 -44.5166 -76.8818 -74.748 -130.267 -58.3262c-46.4189 14.2822 -68.208 69.2783 -78.6631 111.877
c-12.3291 50.2275 -19.0254 101.266 -23.7129 152.704c-4.52148 49.667 -6.9502 99.5908 -8.90625 149.418c-1.91797 48.8721 -2.44727 98.0859 -5.85156 146.874c-0.478516 6.87793 -0.954102 19.3984 -10.4736 20.0742
c-9.01172 0.641602 -16.0654 -13.1143 -19.833 -19.457c-12.4297 -20.9287 -21.7422 -43.6621 -29.584 -66.6523c-16.4316 -48.1621 -29.1396 -97.7539 -40.7119 -147.277c-19.8145 -84.7988 -35.1475 -170.665 -50.0049 -256.5
c0.616211 -26.4326 0.62207 -52.8594 -1.21484 -79.1953c-1.20117 -17.2578 -11.8125 -30.7822 -28.4258 -35.8203c-14.1846 -4.30273 -32.6875 0.844727 -37.3154 16.6133c-14.5635 49.623 -19.7295 102.2 -23.8975 153.626z" />
    <glyph glyph-name="O" unicode="O" horiz-adv-x="478" 
d="M76.3604 192.043c-28.3477 20.1992 -52.4395 46.1904 -69.7285 79.0195c-36.6777 69.6504 -41.5781 154.478 -20.6279 229.732c19.4482 69.8662 62.585 144.211 136.413 165.73c67.9893 19.8174 141.864 -6.80957 190.311 -56.1133
c54.1641 -55.125 79.0068 -132.396 90.2939 -207.212c12.2324 -81.0752 6.02441 -167.057 -15.6826 -246.349c16.8506 0.553711 33.7295 1.41406 50.5049 2.93164c16.8789 1.52734 32.7852 4.40625 46.125 15.5215c12.8799 10.7266 25.0967 -7.23535 13.0459 -17.9561
c-30.3477 -26.999 -78.291 -26.0322 -117.622 -26.7676c-24.4326 -71.4717 -72.4189 -141.072 -148.635 -161.412c-35.7295 -9.53516 -78.2871 -3.79883 -107.577 19.877c-34.8691 28.1885 -44.4541 74.3262 -47.6113 116.899
c-2.10645 28.4229 -1.63379 57.2461 0.791016 86.0977zM274.951 45.6289c28.166 20.9873 49.9971 51.085 66.1094 84.208c-40.3955 -0.316406 -81.0225 1.41406 -120.849 7.54102c-18.6318 2.86621 -37.1162 6.93066 -55.084 12.332
c-0.438477 -9.52539 -0.648438 -19.0947 -0.485352 -28.7324c0.500977 -29.5811 -0.722656 -69.0596 27.3213 -86.752c27.1963 -17.1572 59.2803 -6.26074 82.9873 11.4033zM5.12305 430.203c-2.81934 -67.4316 15.7324 -139.323 62.2168 -189.913
c4.13965 -4.50586 8.4707 -8.75488 12.9453 -12.7979c7.1875 52.6963 20.1045 104.967 35.0654 154.509c7.22852 23.9355 30.0371 42.7607 55.9688 40.6641c24.583 -1.9873 39.4873 -23.9697 34.5654 -47.5732c-13.709 -65.7236 -31.8555 -130.083 -38.5928 -196.467
c31.3047 -10.4111 64.4932 -16.0967 96.7773 -19.0068c29.3555 -2.64453 58.9141 -3.61426 88.416 -3.45508c8.64941 22.5088 14.9043 45.6465 18.9287 67.708c13.6875 75.0293 11.3311 154.236 -8.18262 228.049c-16.4756 62.3281 -47.6895 125.511 -102.482 162.561
c-50.9873 34.4814 -123.135 43.9062 -173.847 4.01465c-54.1299 -42.5762 -79.0068 -121.962 -81.7793 -188.292z" />
    <glyph glyph-name="O" unicode="&#xd6;" horiz-adv-x="478" 
d="M76.3604 192.043c-28.3477 20.1992 -52.4395 46.1904 -69.7285 79.0195c-36.6777 69.6504 -41.5781 154.478 -20.6279 229.732c19.4482 69.8662 62.585 144.211 136.413 165.73c67.9893 19.8174 141.864 -6.80957 190.311 -56.1133
c54.1641 -55.125 79.0068 -132.396 90.2939 -207.212c12.2324 -81.0752 6.02441 -167.057 -15.6826 -246.349c16.8506 0.553711 33.7295 1.41406 50.5049 2.93164c16.8789 1.52734 32.7852 4.40625 46.125 15.5215c12.8799 10.7266 25.0967 -7.23535 13.0459 -17.9561
c-30.3477 -26.999 -78.291 -26.0322 -117.622 -26.7676c-24.4326 -71.4717 -72.4189 -141.072 -148.635 -161.412c-35.7295 -9.53516 -78.2871 -3.79883 -107.577 19.877c-34.8691 28.1885 -44.4541 74.3262 -47.6113 116.899
c-2.10645 28.4229 -1.63379 57.2461 0.791016 86.0977zM274.951 45.6289c28.166 20.9873 49.9971 51.085 66.1094 84.208c-40.3955 -0.316406 -81.0225 1.41406 -120.849 7.54102c-18.6318 2.86621 -37.1162 6.93066 -55.084 12.332
c-0.438477 -9.52539 -0.648438 -19.0947 -0.485352 -28.7324c0.500977 -29.5811 -0.722656 -69.0596 27.3213 -86.752c27.1963 -17.1572 59.2803 -6.26074 82.9873 11.4033zM5.12305 430.203c-2.81934 -67.4316 15.7324 -139.323 62.2168 -189.913
c4.13965 -4.50586 8.4707 -8.75488 12.9453 -12.7979c7.1875 52.6963 20.1045 104.967 35.0654 154.509c7.22852 23.9355 30.0371 42.7607 55.9688 40.6641c24.583 -1.9873 39.4873 -23.9697 34.5654 -47.5732c-13.709 -65.7236 -31.8555 -130.083 -38.5928 -196.467
c31.3047 -10.4111 64.4932 -16.0967 96.7773 -19.0068c29.3555 -2.64453 58.9141 -3.61426 88.416 -3.45508c8.64941 22.5088 14.9043 45.6465 18.9287 67.708c13.6875 75.0293 11.3311 154.236 -8.18262 228.049c-16.4756 62.3281 -47.6895 125.511 -102.482 162.561
c-50.9873 34.4814 -123.135 43.9062 -173.847 4.01465c-54.1299 -42.5762 -79.0068 -121.962 -81.7793 -188.292z" />
    <glyph glyph-name="O" unicode="&#xd5;" horiz-adv-x="478" 
d="M76.3604 192.043c-28.3477 20.1992 -52.4395 46.1904 -69.7285 79.0195c-36.6777 69.6504 -41.5781 154.478 -20.6279 229.732c19.4482 69.8662 62.585 144.211 136.413 165.73c67.9893 19.8174 141.864 -6.80957 190.311 -56.1133
c54.1641 -55.125 79.0068 -132.396 90.2939 -207.212c12.2324 -81.0752 6.02441 -167.057 -15.6826 -246.349c16.8506 0.553711 33.7295 1.41406 50.5049 2.93164c16.8789 1.52734 32.7852 4.40625 46.125 15.5215c12.8799 10.7266 25.0967 -7.23535 13.0459 -17.9561
c-30.3477 -26.999 -78.291 -26.0322 -117.622 -26.7676c-24.4326 -71.4717 -72.4189 -141.072 -148.635 -161.412c-35.7295 -9.53516 -78.2871 -3.79883 -107.577 19.877c-34.8691 28.1885 -44.4541 74.3262 -47.6113 116.899
c-2.10645 28.4229 -1.63379 57.2461 0.791016 86.0977zM274.951 45.6289c28.166 20.9873 49.9971 51.085 66.1094 84.208c-40.3955 -0.316406 -81.0225 1.41406 -120.849 7.54102c-18.6318 2.86621 -37.1162 6.93066 -55.084 12.332
c-0.438477 -9.52539 -0.648438 -19.0947 -0.485352 -28.7324c0.500977 -29.5811 -0.722656 -69.0596 27.3213 -86.752c27.1963 -17.1572 59.2803 -6.26074 82.9873 11.4033zM5.12305 430.203c-2.81934 -67.4316 15.7324 -139.323 62.2168 -189.913
c4.13965 -4.50586 8.4707 -8.75488 12.9453 -12.7979c7.1875 52.6963 20.1045 104.967 35.0654 154.509c7.22852 23.9355 30.0371 42.7607 55.9688 40.6641c24.583 -1.9873 39.4873 -23.9697 34.5654 -47.5732c-13.709 -65.7236 -31.8555 -130.083 -38.5928 -196.467
c31.3047 -10.4111 64.4932 -16.0967 96.7773 -19.0068c29.3555 -2.64453 58.9141 -3.61426 88.416 -3.45508c8.64941 22.5088 14.9043 45.6465 18.9287 67.708c13.6875 75.0293 11.3311 154.236 -8.18262 228.049c-16.4756 62.3281 -47.6895 125.511 -102.482 162.561
c-50.9873 34.4814 -123.135 43.9062 -173.847 4.01465c-54.1299 -42.5762 -79.0068 -121.962 -81.7793 -188.292z" />
    <glyph glyph-name="O" unicode="&#xd4;" horiz-adv-x="478" 
d="M76.3604 192.043c-28.3477 20.1992 -52.4395 46.1904 -69.7285 79.0195c-36.6777 69.6504 -41.5781 154.478 -20.6279 229.732c19.4482 69.8662 62.585 144.211 136.413 165.73c67.9893 19.8174 141.864 -6.80957 190.311 -56.1133
c54.1641 -55.125 79.0068 -132.396 90.2939 -207.212c12.2324 -81.0752 6.02441 -167.057 -15.6826 -246.349c16.8506 0.553711 33.7295 1.41406 50.5049 2.93164c16.8789 1.52734 32.7852 4.40625 46.125 15.5215c12.8799 10.7266 25.0967 -7.23535 13.0459 -17.9561
c-30.3477 -26.999 -78.291 -26.0322 -117.622 -26.7676c-24.4326 -71.4717 -72.4189 -141.072 -148.635 -161.412c-35.7295 -9.53516 -78.2871 -3.79883 -107.577 19.877c-34.8691 28.1885 -44.4541 74.3262 -47.6113 116.899
c-2.10645 28.4229 -1.63379 57.2461 0.791016 86.0977zM274.951 45.6289c28.166 20.9873 49.9971 51.085 66.1094 84.208c-40.3955 -0.316406 -81.0225 1.41406 -120.849 7.54102c-18.6318 2.86621 -37.1162 6.93066 -55.084 12.332
c-0.438477 -9.52539 -0.648438 -19.0947 -0.485352 -28.7324c0.500977 -29.5811 -0.722656 -69.0596 27.3213 -86.752c27.1963 -17.1572 59.2803 -6.26074 82.9873 11.4033zM5.12305 430.203c-2.81934 -67.4316 15.7324 -139.323 62.2168 -189.913
c4.13965 -4.50586 8.4707 -8.75488 12.9453 -12.7979c7.1875 52.6963 20.1045 104.967 35.0654 154.509c7.22852 23.9355 30.0371 42.7607 55.9688 40.6641c24.583 -1.9873 39.4873 -23.9697 34.5654 -47.5732c-13.709 -65.7236 -31.8555 -130.083 -38.5928 -196.467
c31.3047 -10.4111 64.4932 -16.0967 96.7773 -19.0068c29.3555 -2.64453 58.9141 -3.61426 88.416 -3.45508c8.64941 22.5088 14.9043 45.6465 18.9287 67.708c13.6875 75.0293 11.3311 154.236 -8.18262 228.049c-16.4756 62.3281 -47.6895 125.511 -102.482 162.561
c-50.9873 34.4814 -123.135 43.9062 -173.847 4.01465c-54.1299 -42.5762 -79.0068 -121.962 -81.7793 -188.292z" />
    <glyph glyph-name="O" unicode="&#xd3;" horiz-adv-x="478" 
d="M76.3604 192.043c-28.3477 20.1992 -52.4395 46.1904 -69.7285 79.0195c-36.6777 69.6504 -41.5781 154.478 -20.6279 229.732c19.4482 69.8662 62.585 144.211 136.413 165.73c67.9893 19.8174 141.864 -6.80957 190.311 -56.1133
c54.1641 -55.125 79.0068 -132.396 90.2939 -207.212c12.2324 -81.0752 6.02441 -167.057 -15.6826 -246.349c16.8506 0.553711 33.7295 1.41406 50.5049 2.93164c16.8789 1.52734 32.7852 4.40625 46.125 15.5215c12.8799 10.7266 25.0967 -7.23535 13.0459 -17.9561
c-30.3477 -26.999 -78.291 -26.0322 -117.622 -26.7676c-24.4326 -71.4717 -72.4189 -141.072 -148.635 -161.412c-35.7295 -9.53516 -78.2871 -3.79883 -107.577 19.877c-34.8691 28.1885 -44.4541 74.3262 -47.6113 116.899
c-2.10645 28.4229 -1.63379 57.2461 0.791016 86.0977zM274.951 45.6289c28.166 20.9873 49.9971 51.085 66.1094 84.208c-40.3955 -0.316406 -81.0225 1.41406 -120.849 7.54102c-18.6318 2.86621 -37.1162 6.93066 -55.084 12.332
c-0.438477 -9.52539 -0.648438 -19.0947 -0.485352 -28.7324c0.500977 -29.5811 -0.722656 -69.0596 27.3213 -86.752c27.1963 -17.1572 59.2803 -6.26074 82.9873 11.4033zM5.12305 430.203c-2.81934 -67.4316 15.7324 -139.323 62.2168 -189.913
c4.13965 -4.50586 8.4707 -8.75488 12.9453 -12.7979c7.1875 52.6963 20.1045 104.967 35.0654 154.509c7.22852 23.9355 30.0371 42.7607 55.9688 40.6641c24.583 -1.9873 39.4873 -23.9697 34.5654 -47.5732c-13.709 -65.7236 -31.8555 -130.083 -38.5928 -196.467
c31.3047 -10.4111 64.4932 -16.0967 96.7773 -19.0068c29.3555 -2.64453 58.9141 -3.61426 88.416 -3.45508c8.64941 22.5088 14.9043 45.6465 18.9287 67.708c13.6875 75.0293 11.3311 154.236 -8.18262 228.049c-16.4756 62.3281 -47.6895 125.511 -102.482 162.561
c-50.9873 34.4814 -123.135 43.9062 -173.847 4.01465c-54.1299 -42.5762 -79.0068 -121.962 -81.7793 -188.292z" />
    <glyph glyph-name="P" unicode="P" horiz-adv-x="424" 
d="M-7.00977 15.5479c-4.65625 59.6621 -8.02051 119.594 -9.50098 179.425c-2.95117 119.934 -1.53027 240.513 9.41602 360.012c2.42871 26.5049 19.2422 46.6035 45.9941 52.1016c22.3398 4.59375 49.082 -11.5781 48.2812 -36.1895
c-3.28613 -101.206 -6.87891 -202.343 -6.60352 -303.586c3.30762 2.99805 6.59668 5.99316 9.88281 9.01953c13.2275 82.6621 30.1221 165.953 61.2646 243.398c16.2158 40.3203 36.9814 80.2051 69.7383 109.602c27.2178 24.4268 71.9473 44.6885 98.1045 7.22266
c25.1152 -35.9736 19.8643 -86.9736 11.4561 -127.572c-9.42871 -45.5244 -30.4316 -89.2305 -53.8105 -129.091c-23.6318 -40.2949 -50.3809 -78.4434 -80.7061 -113.979c-7.0625 -8.28027 -14.2939 -16.5791 -21.6943 -24.7998
c23.1504 2.92871 46.3096 -0.882812 68.5771 -9.18457c29.5615 -11.0176 56.4727 -28.0215 86.0439 -39.0303c34.4561 -12.8301 70.417 -12.9932 104.52 1.10742c16.4844 6.81543 22.5898 -16.1934 7.31641 -22.4736c-30.3564 -12.4824 -63.3477 -16.5664 -95.6445 -10.0107
c-29.7998 6.04883 -56.4141 20.5938 -83.4941 33.7832c-28.0752 13.6719 -58.3848 26.8174 -90.3057 21.6074c-9.87305 -1.61133 -19.2764 -4.65918 -28.3076 -8.63965c-12.8516 -12.6201 -26.248 -24.6143 -40.2764 -35.5293
c-7.52539 -60.6416 -12.5605 -121.63 -15.4268 -182.456c0.907227 -40.7773 1.18848 -81.5508 0.0654297 -122.303c-0.387695 -14.1064 -9.46582 -26.7393 -22.4736 -32.1934c-10.8271 -4.53711 -28.6201 -3.93945 -35.3447 7.61035
c-29.6367 50.9004 -32.5811 114.646 -37.0713 172.148zM151.879 427.637c-10.3262 -38.7744 -19.2061 -78.0488 -26.9043 -117.637c2.67578 2.79102 5.37988 5.63867 8.14941 8.62695c29.8125 32.165 58.2168 66.1924 83.9268 101.728
c23.8447 32.957 45.3086 67.5352 61.3145 105.023c8.70215 20.3838 39.541 99.3408 -2.35352 102.721c-18.3057 1.47363 -38.6172 -20.7627 -49.1904 -32.9541c-11.9033 -13.7314 -21.4697 -29.124 -29.8408 -45.208c-20.0986 -38.624 -33.9238 -80.3242 -45.1016 -122.3z
" />
    <glyph glyph-name="Q" unicode="Q" horiz-adv-x="478" 
d="M76.3604 192.043c-28.3477 20.1992 -52.4375 46.1904 -69.7266 79.0195c-36.6777 69.6504 -41.5781 154.478 -20.6279 229.732c19.4512 69.8662 62.5879 144.211 136.416 165.73c67.9893 19.8174 141.864 -6.80957 190.311 -56.1133
c54.1641 -55.125 79.0068 -132.396 90.2939 -207.212c12.2324 -81.0752 6.02441 -167.057 -15.6826 -246.349c16.8506 0.553711 33.7295 1.41406 50.5049 2.93164c16.8789 1.52734 32.7852 4.40625 46.125 15.5215c12.8799 10.7266 25.0967 -7.23535 13.0459 -17.9561
c-30.3477 -26.999 -78.291 -26.0322 -117.622 -26.7676c-20.8252 -60.9102 -58.7734 -120.432 -116.708 -149.289c10.2422 -54.0947 28.3076 -121.16 90.4229 -127.344c17.8926 -1.78027 9.30273 -27.1455 -6.19336 -25.5312
c-55.2812 5.76367 -88.3291 55.1963 -101.513 105.02c-3.29199 12.4355 -5.60742 25.0742 -7.74805 37.748c-2.27832 -0.713867 -4.57227 -1.39258 -6.90039 -2.01562c-35.7295 -9.53516 -78.2871 -3.79883 -107.577 19.877
c-34.8691 28.1885 -44.4541 74.3262 -47.6113 116.899c-2.10645 28.4229 -1.63086 57.2461 0.791016 86.0977zM191.966 34.2295c11.2061 -7.07227 23.2402 -9.3252 35.1816 -8.35156c-0.15625 0.603516 -0.28125 1.21387 -0.444336 1.81738
c-5.91113 22.0547 -28.6074 65.7666 -58.4443 46.6279c-0.15332 -0.0966797 -0.300781 -0.146484 -0.451172 -0.237305c3.18848 -16.1465 9.86035 -30.835 24.1582 -39.8564zM274.952 45.6289c28.166 20.9873 49.9951 51.085 66.1104 84.2109
c-40.3955 -0.316406 -81.0195 1.41406 -120.849 7.54102c-18.6318 2.86621 -37.1162 6.93066 -55.084 12.332c-0.438477 -9.52539 -0.648438 -19.0947 -0.485352 -28.7324c0.12207 -7.29395 0.143555 -15.1895 0.522461 -23.21
c20.7969 8.18652 44.3877 3.16113 61.2168 -12.9258c14.5605 -13.916 21.7637 -32.7666 26.4668 -52.1768c7.8418 3.44531 15.3203 7.90723 22.1016 12.9609zM5.125 430.203c-2.81934 -67.4316 15.7295 -139.323 62.2178 -189.913
c4.13965 -4.50879 8.4707 -8.75488 12.9453 -12.7979c7.1875 52.6963 20.1045 104.967 35.0654 154.509c7.22852 23.9355 30.0371 42.7607 55.9688 40.6641c24.583 -1.9873 39.4873 -23.9697 34.5654 -47.5732c-13.7061 -65.7236 -31.8555 -130.083 -38.5928 -196.467
c31.3047 -10.4111 64.4932 -16.0967 96.7773 -19.0068c29.3555 -2.64453 58.9141 -3.61426 88.416 -3.45508c8.64941 22.5088 14.9043 45.6465 18.9287 67.708c13.6904 75.0293 11.3311 154.236 -8.17969 228.049c-16.4785 62.3281 -47.6924 125.511 -102.482 162.561
c-50.9912 34.4814 -123.139 43.9062 -173.851 4.01465c-54.1299 -42.5762 -79.0068 -121.962 -81.7793 -188.292z" />
    <glyph glyph-name="R" unicode="R" horiz-adv-x="489" 
d="M-7.01367 15.5479c-4.65918 59.6621 -8.01953 119.595 -9.49609 179.429c-2.95117 119.934 -1.53027 240.513 9.41602 360.012c2.42871 26.5049 19.2422 46.6035 45.9941 52.1016c22.3398 4.59375 49.082 -11.5781 48.2812 -36.1895
c-3.28613 -101.206 -6.87891 -202.343 -6.60352 -303.586c3.30762 2.99805 6.59668 5.99316 9.88281 9.01953c13.2275 82.6621 30.125 165.953 61.2637 243.398c16.2158 40.3203 36.9814 80.2051 69.7383 109.602c27.2178 24.4268 71.9473 44.6885 98.1045 7.22266
c25.1152 -35.9736 19.8643 -86.9736 11.4561 -127.572c-9.42871 -45.5244 -30.4355 -89.2305 -53.8105 -129.091c-23.6318 -40.2949 -50.3809 -78.4434 -80.7061 -113.979c-22.5996 -26.4854 -46.8291 -53.2275 -73.3467 -76.6309
c9.3252 -0.694336 18.5908 0.269531 27.7812 -4.96582c11.4717 -6.53418 21.9609 -16.5605 29.793 -27.1309c16.2031 -21.8643 24.4238 -49.0039 30.9424 -75.0605c6.66211 -26.627 12.7793 -53.5635 27.3457 -74.7393c12.7676 -18.5566 26.5176 -35.627 43.6562 -49.8896
c96.3398 -80.168 169.298 129.895 202.499 187.501c8.02051 13.9121 32.873 7.63477 23.7734 -8.41211c-26.4795 -46.6973 -45.4805 -97.3721 -74.6445 -142.577c-23.5537 -36.5059 -53.0811 -71.5566 -95.6289 -85.9541
c-43.8311 -14.8291 -97.541 -15.083 -137.295 10.0947c-43.2803 27.4121 -60.5566 79.4355 -70.8545 126.79c-4.89453 22.499 -8.51465 45.1514 -15.6963 67.1094c-3.32031 10.1484 -7 20.2031 -11.3496 29.9473c-1.54883 3.46387 -1.9248 7.85742 -2.49414 12.1035
c-6.29297 -54.4893 -10.6055 -109.217 -13.1777 -163.815c0.907227 -40.7773 1.18848 -81.5508 0.0654297 -122.303c-0.387695 -14.1064 -9.46582 -26.7393 -22.4736 -32.1934c-10.8271 -4.53711 -28.6201 -3.93945 -35.3447 7.61035
c-29.6367 50.9004 -32.5811 114.646 -37.0713 172.148zM151.876 427.638c-10.3262 -38.7744 -19.2061 -78.0488 -26.9043 -117.637c2.67578 2.79102 5.37988 5.63867 8.14941 8.62695c29.8125 32.165 58.2168 66.1924 83.9268 101.728
c23.8447 32.957 45.3086 67.5352 61.3145 105.023c8.70215 20.3838 39.541 99.3408 -2.35352 102.721c-18.3057 1.47363 -38.6172 -20.7627 -49.1904 -32.9541c-11.9033 -13.7314 -21.4697 -29.124 -29.8408 -45.208c-20.0986 -38.624 -33.9238 -80.3242 -45.1016 -122.3z
" />
    <glyph glyph-name="S" unicode="S" horiz-adv-x="409" 
d="M186.685 -4.30371c-65.9922 71.9814 -134.704 141.276 -176.739 231.383c-54.042 115.859 -54.8965 284.093 43.9307 377.829c25.4346 24.123 56.2383 40.5576 91.8711 41.7061c28.0039 0.904297 54.7871 -10.9307 71.3975 -33.8896
c39.1064 -54.0479 31.8564 -129.96 25.8291 -192.335c-1.62695 -16.8477 -32.0898 -24.8174 -30.6787 -5.17871c2.97949 41.4219 7.28516 85.6885 -4.49609 126.149c-8.4707 29.0889 -28.3604 64.249 -64.1748 52.7275
c-27.1865 -8.74316 -44.792 -35.1729 -55.8164 -59.7188c-12.3008 -27.3906 -15.5615 -57.5381 -14.7412 -88.6924c0.916992 -34.666 5.17871 -62.4102 13.2051 -94.9639c4.49316 -18.2217 10.041 -36.3301 16.5557 -53.9316
c2.61621 -7.0625 5.42578 -14.0527 8.43652 -20.959c2.18066 -5.00977 4.49902 -9.95117 6.85547 -14.8828c0.19043 -0.394531 0.995117 -1.93066 1.62109 -3.11621c30.3252 -56.2695 72.1885 -105.692 112.824 -154.687
c6.70898 -8.08887 13.3838 -16.2188 19.9893 -24.4014c5.96387 6.18359 12.0029 12.2012 18.083 18.0186c23.3877 22.3682 48.75 42.2861 77.0225 58.1299c22.0459 12.3545 56.3486 33.749 80.9443 17.4922c11.9502 -7.89844 -3.36133 -26.8838 -14.7607 -21.6484
c-13.625 6.25488 -39.8232 -10.584 -51.9775 -17.2021c-14.9668 -8.15137 -29.1074 -17.8799 -42.5039 -28.3945c-18.1367 -14.2354 -34.7588 -30.2539 -50.2549 -47.3086c30.5879 -39.4717 58.4414 -80.8838 77.8428 -127.325
c24.1484 -57.7998 23.0059 -134.297 -15.9316 -185.666c-39.8037 -52.5088 -115.76 -33.5986 -154.527 8.96484c-45.1553 49.5762 -43.4434 122.941 -20.3809 182.097c8.0166 20.5625 18.4805 40.5713 30.5752 59.8037zM309.538 -236.711
c14.998 23.6387 1.19531 60.2334 -9.40332 82.873c-13.002 27.7754 -32.4629 54.6494 -51.6328 78.5039c-13.6621 16.998 -27.9375 33.4795 -42.4854 49.7168c-28.251 -46.8135 -46.6416 -100.073 -30.9355 -153.996c8.04492 -27.6279 25.7842 -52.5488 50.8838 -67.1436
c26.1045 -15.1826 65.3799 -18.6338 83.5732 10.0459z" />
    <glyph glyph-name="T" unicode="T" horiz-adv-x="560" 
d="M-14.7832 615.152c-14 10.9902 6.74023 33.0811 19.7451 22.8613c41.9883 -32.9512 97.5166 -34.1592 148.063 -25.4971c104.341 17.874 198.737 70.6982 302.355 91.6611c77.4268 15.665 218.728 20.6025 232.361 -85.375
c2.10254 -16.3594 -26.6367 -23.3281 -29.0088 -4.89355c-7.67285 59.6436 -79.7451 71.6758 -128.261 71.4883c-58.3662 -0.225586 -114.076 -15.9561 -168.916 -35.0322c8.08594 -7.00586 13.4023 -16.8818 13.1553 -28.4941
c-1.83691 -86.9521 -7.19434 -173.807 -9.22559 -260.771c-1.78711 -76.4756 -2.98242 -153.032 -1.19531 -229.521c1.59863 -68.4395 2.52832 -139.292 23.0312 -205.229c6.33984 -20.3867 19.7422 -55.8535 45.5361 -56.6387
c17.2764 -0.525391 27.9346 15.4307 37.0625 28.0225c9.81641 13.54 17.834 28.4316 24.8994 43.5615c29.8994 64.043 46.0869 136.165 60.1152 205.124c3.21094 15.7803 29.9375 16.2344 27.0117 -2.0625c-7.41602 -46.3877 -17.9805 -91.8926 -31.6611 -136.838
c-12.0381 -39.5469 -26.0098 -79.3252 -48.6309 -114.203c-16.7695 -25.8604 -41.791 -57.2842 -72.0479 -67.5234c-37.6729 -12.7451 -75.3555 11.5752 -98.3369 39.6973c-23.8477 29.1865 -36.9219 66.1396 -45.9248 102.298
c-9.98535 40.1016 -15.0957 82.5781 -17.7207 123.79c-5.41016 84.9277 -5.81348 170.347 -4.14844 255.399c1.68359 85.9131 3.93945 172.055 9.85645 257.786c0.353516 5.1416 1.29199 10.0576 2.72559 14.708c-13.1055 -4.63477 -26.2109 -9.10645 -39.3477 -13.2246
c-79.1699 -24.8242 -179.919 -47.2705 -251.494 8.90527z" />
    <glyph glyph-name="U" unicode="U" horiz-adv-x="581" 
d="M6.22363 129.167c-9.75391 46.7979 -15.8291 95.1191 -18.9365 142.818c-5.87012 90.2217 -4.2334 181.345 1.9375 271.485c2.04688 29.8877 22.2646 52.7158 51.9111 58.8086c25.8066 5.30078 54.5459 -13.1465 54.4932 -40.8525
c-0.178711 -92.5498 -4.62207 -184.803 -0.789062 -277.356c1.66504 -40.1982 4.81641 -80.0645 9.69824 -119.996c4.62207 -37.7764 7.76367 -68.5488 20.0459 -104.879c4.71289 -13.9404 10.248 -28.7168 17.918 -41.2773
c4.55957 -7.4668 14.5322 -23.4131 24.5547 -22.5273c14.4912 1.2832 26.5195 26.7305 31.7012 37.0283c7.58203 15.0703 14.4541 30.501 20.7344 46.1592c29.1299 72.6543 44.9697 149.905 62.4463 225.939c16.3906 71.293 32.9189 142.617 51.9385 213.263
c0.416016 6.43066 0.832031 12.8613 1.30762 19.2822c2.10938 28.4883 21.085 50.2021 49.4609 56.0352c24.3301 5.00098 52.3457 -12.4883 51.9229 -38.9209c-1.11133 -69.7227 -5.6582 -139.379 -7.40137 -209.099c-1.56445 -62.625 -2.73145 -125.322 -1.61426 -187.963
c1.01367 -56.8203 1.43652 -114.858 15.9531 -170.152c4.1709 -15.8809 12.6885 -46.0654 32.0332 -49.3887c22.6748 -3.89551 40.5928 38.7217 48.3379 55.2188c24.6992 52.6084 37.9111 111.957 49.7363 168.59c3.29199 15.7617 29.8652 16.2471 27.0117 -2.0625
c-6.20801 -39.8193 -15.3047 -78.791 -27.2178 -117.296c-9.84473 -31.8145 -21.4199 -63.7354 -39.8633 -91.6855c-13.8779 -21.0254 -34.5527 -47.4736 -58.8633 -56.792c-31.0986 -11.9189 -64.1436 6.19336 -84.8213 28.6143
c-45.2607 49.0762 -54.3828 127.573 -58.9395 191.231c-5.02832 70.2139 -5.25684 141.034 -3.91113 211.376c0.306641 16.1719 0.634766 32.3594 1.01074 48.5469c-9.90137 -42.4014 -19.7988 -84.8027 -29.4463 -127.257
c-9.19336 -40.4639 -18.9531 -80.8438 -31.3887 -120.45c-12.9014 -41.0996 -30.2373 -79.1475 -48.4404 -118.021c-7.70996 -16.4658 -12.9824 -32.5752 -26.5381 -45.5771c-13.6963 -13.1367 -32.3184 -20.5469 -51.4219 -19.3955
c-41.1152 2.47852 -77.1143 37.21 -95.7266 71.7002c-19.4141 35.9795 -30.5225 74.9639 -38.834 114.853z" />
    <glyph glyph-name="U" unicode="&#xdc;" horiz-adv-x="581" 
d="M6.22363 129.167c-9.75391 46.7979 -15.8291 95.1191 -18.9365 142.818c-5.87012 90.2217 -4.2334 181.345 1.9375 271.485c2.04688 29.8877 22.2646 52.7158 51.9111 58.8086c25.8066 5.30078 54.5459 -13.1465 54.4932 -40.8525
c-0.178711 -92.5498 -4.62207 -184.803 -0.789062 -277.356c1.66504 -40.1982 4.81641 -80.0645 9.69824 -119.996c4.62207 -37.7764 7.76367 -68.5488 20.0459 -104.879c4.71289 -13.9404 10.248 -28.7168 17.918 -41.2773
c4.55957 -7.4668 14.5322 -23.4131 24.5547 -22.5273c14.4912 1.2832 26.5195 26.7305 31.7012 37.0283c7.58203 15.0703 14.4541 30.501 20.7344 46.1592c29.1299 72.6543 44.9697 149.905 62.4463 225.939c16.3906 71.293 32.9189 142.617 51.9385 213.263
c0.416016 6.43066 0.832031 12.8613 1.30762 19.2822c2.10938 28.4883 21.085 50.2021 49.4609 56.0352c24.3301 5.00098 52.3457 -12.4883 51.9229 -38.9209c-1.11133 -69.7227 -5.6582 -139.379 -7.40137 -209.099c-1.56445 -62.625 -2.73145 -125.322 -1.61426 -187.963
c1.01367 -56.8203 1.43652 -114.858 15.9531 -170.152c4.1709 -15.8809 12.6885 -46.0654 32.0332 -49.3887c22.6748 -3.89551 40.5928 38.7217 48.3379 55.2188c24.6992 52.6084 37.9111 111.957 49.7363 168.59c3.29199 15.7617 29.8652 16.2471 27.0117 -2.0625
c-6.20801 -39.8193 -15.3047 -78.791 -27.2178 -117.296c-9.84473 -31.8145 -21.4199 -63.7354 -39.8633 -91.6855c-13.8779 -21.0254 -34.5527 -47.4736 -58.8633 -56.792c-31.0986 -11.9189 -64.1436 6.19336 -84.8213 28.6143
c-45.2607 49.0762 -54.3828 127.573 -58.9395 191.231c-5.02832 70.2139 -5.25684 141.034 -3.91113 211.376c0.306641 16.1719 0.634766 32.3594 1.01074 48.5469c-9.90137 -42.4014 -19.7988 -84.8027 -29.4463 -127.257
c-9.19336 -40.4639 -18.9531 -80.8438 -31.3887 -120.45c-12.9014 -41.0996 -30.2373 -79.1475 -48.4404 -118.021c-7.70996 -16.4658 -12.9824 -32.5752 -26.5381 -45.5771c-13.6963 -13.1367 -32.3184 -20.5469 -51.4219 -19.3955
c-41.1152 2.47852 -77.1143 37.21 -95.7266 71.7002c-19.4141 35.9795 -30.5225 74.9639 -38.834 114.853z" />
    <glyph glyph-name="U" unicode="&#xdb;" horiz-adv-x="581" 
d="M6.22363 129.167c-9.75391 46.7979 -15.8291 95.1191 -18.9365 142.818c-5.87012 90.2217 -4.2334 181.345 1.9375 271.485c2.04688 29.8877 22.2646 52.7158 51.9111 58.8086c25.8066 5.30078 54.5459 -13.1465 54.4932 -40.8525
c-0.178711 -92.5498 -4.62207 -184.803 -0.789062 -277.356c1.66504 -40.1982 4.81641 -80.0645 9.69824 -119.996c4.62207 -37.7764 7.76367 -68.5488 20.0459 -104.879c4.71289 -13.9404 10.248 -28.7168 17.918 -41.2773
c4.55957 -7.4668 14.5322 -23.4131 24.5547 -22.5273c14.4912 1.2832 26.5195 26.7305 31.7012 37.0283c7.58203 15.0703 14.4541 30.501 20.7344 46.1592c29.1299 72.6543 44.9697 149.905 62.4463 225.939c16.3906 71.293 32.9189 142.617 51.9385 213.263
c0.416016 6.43066 0.832031 12.8613 1.30762 19.2822c2.10938 28.4883 21.085 50.2021 49.4609 56.0352c24.3301 5.00098 52.3457 -12.4883 51.9229 -38.9209c-1.11133 -69.7227 -5.6582 -139.379 -7.40137 -209.099c-1.56445 -62.625 -2.73145 -125.322 -1.61426 -187.963
c1.01367 -56.8203 1.43652 -114.858 15.9531 -170.152c4.1709 -15.8809 12.6885 -46.0654 32.0332 -49.3887c22.6748 -3.89551 40.5928 38.7217 48.3379 55.2188c24.6992 52.6084 37.9111 111.957 49.7363 168.59c3.29199 15.7617 29.8652 16.2471 27.0117 -2.0625
c-6.20801 -39.8193 -15.3047 -78.791 -27.2178 -117.296c-9.84473 -31.8145 -21.4199 -63.7354 -39.8633 -91.6855c-13.8779 -21.0254 -34.5527 -47.4736 -58.8633 -56.792c-31.0986 -11.9189 -64.1436 6.19336 -84.8213 28.6143
c-45.2607 49.0762 -54.3828 127.573 -58.9395 191.231c-5.02832 70.2139 -5.25684 141.034 -3.91113 211.376c0.306641 16.1719 0.634766 32.3594 1.01074 48.5469c-9.90137 -42.4014 -19.7988 -84.8027 -29.4463 -127.257
c-9.19336 -40.4639 -18.9531 -80.8438 -31.3887 -120.45c-12.9014 -41.0996 -30.2373 -79.1475 -48.4404 -118.021c-7.70996 -16.4658 -12.9824 -32.5752 -26.5381 -45.5771c-13.6963 -13.1367 -32.3184 -20.5469 -51.4219 -19.3955
c-41.1152 2.47852 -77.1143 37.21 -95.7266 71.7002c-19.4141 35.9795 -30.5225 74.9639 -38.834 114.853z" />
    <glyph glyph-name="U" unicode="&#xda;" horiz-adv-x="581" 
d="M6.22363 129.167c-9.75391 46.7979 -15.8291 95.1191 -18.9365 142.818c-5.87012 90.2217 -4.2334 181.345 1.9375 271.485c2.04688 29.8877 22.2646 52.7158 51.9111 58.8086c25.8066 5.30078 54.5459 -13.1465 54.4932 -40.8525
c-0.178711 -92.5498 -4.62207 -184.803 -0.789062 -277.356c1.66504 -40.1982 4.81641 -80.0645 9.69824 -119.996c4.62207 -37.7764 7.76367 -68.5488 20.0459 -104.879c4.71289 -13.9404 10.248 -28.7168 17.918 -41.2773
c4.55957 -7.4668 14.5322 -23.4131 24.5547 -22.5273c14.4912 1.2832 26.5195 26.7305 31.7012 37.0283c7.58203 15.0703 14.4541 30.501 20.7344 46.1592c29.1299 72.6543 44.9697 149.905 62.4463 225.939c16.3906 71.293 32.9189 142.617 51.9385 213.263
c0.416016 6.43066 0.832031 12.8613 1.30762 19.2822c2.10938 28.4883 21.085 50.2021 49.4609 56.0352c24.3301 5.00098 52.3457 -12.4883 51.9229 -38.9209c-1.11133 -69.7227 -5.6582 -139.379 -7.40137 -209.099c-1.56445 -62.625 -2.73145 -125.322 -1.61426 -187.963
c1.01367 -56.8203 1.43652 -114.858 15.9531 -170.152c4.1709 -15.8809 12.6885 -46.0654 32.0332 -49.3887c22.6748 -3.89551 40.5928 38.7217 48.3379 55.2188c24.6992 52.6084 37.9111 111.957 49.7363 168.59c3.29199 15.7617 29.8652 16.2471 27.0117 -2.0625
c-6.20801 -39.8193 -15.3047 -78.791 -27.2178 -117.296c-9.84473 -31.8145 -21.4199 -63.7354 -39.8633 -91.6855c-13.8779 -21.0254 -34.5527 -47.4736 -58.8633 -56.792c-31.0986 -11.9189 -64.1436 6.19336 -84.8213 28.6143
c-45.2607 49.0762 -54.3828 127.573 -58.9395 191.231c-5.02832 70.2139 -5.25684 141.034 -3.91113 211.376c0.306641 16.1719 0.634766 32.3594 1.01074 48.5469c-9.90137 -42.4014 -19.7988 -84.8027 -29.4463 -127.257
c-9.19336 -40.4639 -18.9531 -80.8438 -31.3887 -120.45c-12.9014 -41.0996 -30.2373 -79.1475 -48.4404 -118.021c-7.70996 -16.4658 -12.9824 -32.5752 -26.5381 -45.5771c-13.6963 -13.1367 -32.3184 -20.5469 -51.4219 -19.3955
c-41.1152 2.47852 -77.1143 37.21 -95.7266 71.7002c-19.4141 35.9795 -30.5225 74.9639 -38.834 114.853z" />
    <glyph glyph-name="V" unicode="V" horiz-adv-x="538" 
d="M43.7188 132.403c-14.0156 49.0166 -23.9453 98.791 -31.502 149.185c-14.7451 98.3799 -21.9268 197.586 -25.2783 296.948c-1.85547 55.0244 92.4561 78.8037 97.2002 16.4072c7.37891 -97.0596 11.2373 -194.51 23.1719 -291.169
c11.0332 -89.3682 25.3398 -177.675 58.9756 -261.626c10.8213 -27.0117 30.9268 -64.25 62.2852 -71.0469c34.4336 -7.4668 56.5537 35.9512 69.6523 60.9004c25.3311 48.2559 43.3271 100.383 58.2568 153.195c-11.1025 7.9668 -21.457 16.3848 -30.7881 24.9023
c-65.6611 59.9277 -106.717 141.914 -121.387 229.116c-13.6025 80.8721 -6.28027 166.056 24.7676 242.218c14.6826 36.0146 35.5986 75.2617 69.7451 96.2021c34.9844 21.457 74.291 14.832 100.183 -16.7295c26.0381 -31.7432 35.9014 -75.0049 41.29 -114.728
c6.33008 -46.6729 6.64648 -94.3936 4.2334 -141.369c-4.98145 -96.9619 -23.8691 -192.697 -48.9502 -286.314c-1.7998 -6.72754 -3.63965 -13.4424 -5.49805 -20.1582c47.1172 -30.2598 107.902 -52.1738 158.042 -27.6504
c16.1816 7.91406 21.6924 -15.0391 7.31641 -22.4736c-55.084 -28.4951 -120.197 -11.0469 -173.798 20.5586c-8.50879 -28.8076 -17.8496 -57.3652 -28.7139 -85.3809c-14.9609 -38.5771 -32.334 -79.999 -60.2588 -111.16
c-24.3145 -27.1338 -58.958 -43.127 -95.4355 -34.8281c-40.9463 9.31543 -73.8779 40.0879 -98.4014 72.6533c-26.3105 34.9443 -43.1455 80.5156 -55.1084 122.348zM358.838 221.043c1.97168 -1.61426 4.01172 -3.22949 6.07422 -4.84766
c4.4375 16.917 8.65527 33.8428 12.7637 50.6689c20.5625 84.1826 35.3135 170.105 37.7041 256.876c1.12695 40.9053 0.225586 82.4141 -5.78223 122.95c-5.28809 35.6885 -15.7334 80.127 -44.4971 104.65c-35.4043 30.1816 -72.0449 -7.82617 -89.8877 -38.1045
c-18.1963 -30.876 -30.3906 -65.0029 -38.1826 -99.8975c-16.2441 -72.7676 -13.0898 -150.808 9.31836 -221.935c20.665 -65.5947 59.0576 -126.577 112.489 -170.361z" />
    <glyph glyph-name="W" unicode="W" horiz-adv-x="862" 
d="M-6.52637 117.367c-12.3291 43.709 -18.3096 88.8311 -20.5938 134.127c-4.79395 94.9287 8.08887 190.627 22.4082 284.281c4.16504 27.2432 35.5293 45.1172 60.751 44.1377c28.21 -1.09863 40.7861 -26.7178 37.5195 -51.6387
c-11.9727 -91.3203 -25.9287 -182.368 -23.7754 -274.79c0.870117 -37.2441 3.88086 -75.1582 10.2178 -111.893c6.05859 -35.1162 13.1621 -76.1934 31.3398 -107.32c7.45117 -12.7578 18.166 -25.3125 31.8936 -31.5674c15.208 -6.93164 25.9697 0 36.5088 11.2559
c24.1143 25.7539 37.4922 63.2734 49.4521 95.7861c28.207 76.6816 43.9502 158.001 57.54 238.356c10.2793 60.7793 18.4463 121.881 26.0596 183.045c-0.741211 15.79 -1.41406 31.583 -1.94629 47.3828c-1.85547 55.0244 92.4561 78.8037 97.2002 16.4072
c7.37891 -97.0596 11.2373 -194.51 23.1719 -291.169c11.0332 -89.3682 25.3398 -177.675 58.9756 -261.626c10.8213 -27.0117 30.9268 -64.25 62.2852 -71.0469c34.4336 -7.4668 56.5537 35.9512 69.6523 60.9004c25.3311 48.2559 43.3271 100.383 58.2568 153.195
c-11.1025 7.9668 -21.457 16.3848 -30.7881 24.9023c-65.6611 59.9277 -106.717 141.914 -121.387 229.116c-13.6025 80.8721 -6.28027 166.056 24.7676 242.218c14.6826 36.0146 35.5986 75.2617 69.7451 96.2021c34.9844 21.457 74.291 14.832 100.183 -16.7295
c26.0381 -31.7432 35.9014 -75.0049 41.29 -114.728c6.33008 -46.6729 6.64648 -94.3936 4.2334 -141.369c-4.98145 -96.9619 -23.8691 -192.697 -48.9502 -286.314c-1.7998 -6.72754 -3.63965 -13.4424 -5.49805 -20.1582
c47.1172 -30.2598 107.902 -52.1738 158.042 -27.6504c16.1816 7.91406 21.6924 -15.0391 7.31641 -22.4736c-55.084 -28.4951 -120.197 -11.0469 -173.798 20.5586c-8.50879 -28.8076 -17.8496 -57.3652 -28.7139 -85.3809
c-14.9609 -38.5771 -32.334 -79.999 -60.2588 -111.16c-24.3174 -27.1338 -58.9609 -43.127 -95.4385 -34.8281c-40.9463 9.31543 -73.8779 40.0879 -98.4014 72.6533c-26.3105 34.9443 -43.1455 80.5156 -55.1084 122.348
c-14.0186 49.0195 -23.9443 98.793 -31.498 149.187c-6.18066 41.2217 -10.9688 82.5928 -14.7646 124.055c-6.02734 -42.0908 -12.8018 -84.0693 -20.8691 -125.835c-15.9775 -82.7334 -34.7998 -169.034 -73.4365 -244.599
c-15.8086 -30.9229 -38.3145 -56.1787 -70.8115 -69.875c-40.248 -16.9639 -82.3018 2.59082 -108.509 34.3242c-26.9268 32.6035 -42.9326 77.5459 -54.2637 117.713zM682.739 221.041c1.97168 -1.61426 4.01172 -3.22949 6.07422 -4.84766
c4.4375 16.917 8.65527 33.8428 12.7637 50.6689c20.5625 84.1826 35.3135 170.105 37.7041 256.876c1.12695 40.9053 0.225586 82.4141 -5.78223 122.95c-5.28809 35.6885 -15.7334 80.127 -44.4971 104.65c-35.4043 30.1816 -72.0449 -7.82617 -89.8877 -38.1045
c-18.1963 -30.876 -30.3936 -65.0029 -38.1826 -99.8975c-16.2441 -72.7676 -13.0898 -150.808 9.31836 -221.935c20.665 -65.5947 59.0576 -126.577 112.489 -170.361z" />
    <glyph glyph-name="X" unicode="X" horiz-adv-x="514" 
d="M-1.80273 -43.1748c-3.28613 -16.7383 -32.3408 -17.1182 -28.6328 2.18262c10.2637 53.5723 29.9873 104.548 52.3584 154.115c14.0977 31.2393 28.9082 62.1748 44.2754 92.8379c-35.6924 116.526 -50.8535 240.006 -78.916 357.984
c-6.80273 28.6045 9.52246 53.9609 35.4512 66.0146c23.0127 10.6953 56.8809 2.54688 64.7168 -23.8857c23.0215 -77.6611 34.9756 -157.591 50.0557 -237.036c1.42383 -7.50391 2.87305 -14.998 4.33789 -22.4863c6.25195 10.8613 12.5703 21.6826 18.957 32.46
c23.4131 39.5195 47.7051 78.5752 74.4756 115.926c26.8457 37.46 57.1895 70.9863 89.0576 104.153c17.5264 18.2432 40.9639 -4.80957 21.4092 -21.376c-43.3525 -36.7275 -78.2744 -85.584 -109.551 -132.657c-30.4971 -45.9023 -58.623 -93.4639 -85.5781 -141.541
c9.4502 -44.5449 20.1963 -88.7363 33.7988 -132.37c10.0791 -32.3379 22.6426 -63.4053 36.5928 -94.2314c11.5098 -25.4277 22.7061 -49.291 39.5723 -72.1406c15.1172 -20.4844 34.4717 -39.4072 59.9941 -45.4619c32.084 -7.61035 61.4922 9.22461 84.3574 30.6035
c48.1523 45.0234 79.8232 111.457 104.037 171.717c6.27051 15.6152 31.4863 8.84082 24.5117 -8.66992c-16.1436 -40.5137 -35.7764 -79.5293 -59.2549 -116.304c-19.4014 -30.3848 -41.5967 -59.9463 -71.2461 -81.0908
c-55.5 -39.585 -126.784 -47.7119 -184.246 -8.08008c-58.8232 40.5674 -93.6826 107.965 -121.129 171.904c-6.78711 15.8086 -12.9707 31.8271 -18.7002 47.999c-6.54004 -13.2871 -12.9893 -26.6211 -19.3164 -40.0078
c-25.9258 -54.8525 -49.6514 -110.756 -61.3887 -170.559z" />
    <glyph glyph-name="Y" unicode="Y" horiz-adv-x="594" 
d="M10.6807 393.628c-13.7344 65.999 -19.4326 133.769 -24.1611 200.891c-3.72363 53.0186 88.6611 75.54 93.4365 15.7715c5.17285 -64.7627 10.0762 -129.307 19.8643 -193.575c4.05566 -26.623 9.98242 -52.874 16.9854 -78.8682
c6.43359 -23.8887 11.2588 -49.373 21.4941 -72.0439c8.23633 -18.25 25.1934 -29.7812 46.0273 -24.9434c21.2822 4.94434 39.166 29.4277 50.2998 46.7139c28.8135 44.7383 47.0918 97.8633 60.3125 149.079c14.4668 56.041 21.2354 113.56 20.6816 171.413
c-0.00292969 0.269531 0.0625 0.513672 0.078125 0.773438c-0.0625 0.500977 -0.137695 0.998047 -0.200195 1.49902c-2.91602 23.1279 19.7861 44.2842 39.7754 50.1172c19.2412 5.61426 46.5469 -0.803711 52.2139 -23.2432
c21.7607 -86.1787 33.6357 -174.893 41.7471 -263.334c3.24512 -35.3916 5.47266 -70.9834 6.33301 -106.609c5.02832 -0.316406 10.0449 -0.719727 15.0293 -1.29883c32.1279 -3.7334 64.2178 -13.9688 90.5381 -33.2197
c27.8721 -20.3838 43.7246 -47.0791 54.8799 -79.1689c5.13867 -14.7793 -19.2568 -30.1377 -28.541 -16.1064c-17.5146 26.4736 -40.001 54.2549 -68.9844 68.5371c-19.4072 9.5625 -40.9053 14.6162 -62.5967 16.6973
c-0.350586 -34.8125 -2.14941 -69.5938 -5.80762 -104.178c-7.33789 -69.3535 -18.9756 -136.65 -46.6631 -201.078c-24.374 -56.7207 -62.3125 -106.826 -112.774 -142.825c-46.6943 -33.3105 -109.974 -48.584 -161.953 -18.0488
c-51.6074 30.3164 -74.2158 93.7861 -69.9912 151.16c4.86328 66.0576 35.9238 130.057 72.8516 184.067c36.3213 53.1191 84.8867 102.007 141.589 133.189c28.0537 15.4307 59.0176 27.1748 90.9893 34.4561c-3.9707 50.0176 -9.85352 99.9473 -17.1543 149.521
c-4.15918 28.248 -8.87793 56.4014 -13.5811 84.5547c-5.17871 -32.8848 -12.748 -65.3945 -22.8115 -97.1719c-16.8633 -53.2471 -38.377 -113.182 -78.7852 -153.486c-38.1143 -38.0205 -102.179 -68.3486 -147.641 -24.3984
c-22.3242 21.585 -36.0361 51.0059 -47.0635 79.7168c-11.7754 30.6631 -19.7334 63.335 -26.417 95.4404zM365.145 16.8994c6.6123 63.8711 5.67383 129.225 2.26953 193.271c-0.109375 2.06836 -0.25293 4.13965 -0.37207 6.20801
c-45.2578 -10.5459 -88.5225 -31.499 -125.879 -58.1162c-46.1221 -32.8633 -82.7275 -77.9619 -110.196 -127.223c-29.1992 -52.3613 -53.0186 -117.699 -35.4727 -177.759c14.6045 -49.9893 57.0996 -91.0635 111.927 -85.1338
c57.1182 6.17676 97.9482 49.0352 121.862 98.1895c22.9092 47.0889 30.5293 99.0283 35.8613 150.563z" />
    <glyph glyph-name="Y" unicode="&#x178;" horiz-adv-x="594" 
d="M10.6807 393.628c-13.7344 65.999 -19.4326 133.769 -24.1611 200.891c-3.72363 53.0186 88.6611 75.54 93.4365 15.7715c5.17285 -64.7627 10.0762 -129.307 19.8643 -193.575c4.05566 -26.623 9.98242 -52.874 16.9854 -78.8682
c6.43359 -23.8887 11.2588 -49.373 21.4941 -72.0439c8.23633 -18.25 25.1934 -29.7812 46.0273 -24.9434c21.2822 4.94434 39.166 29.4277 50.2998 46.7139c28.8135 44.7383 47.0918 97.8633 60.3125 149.079c14.4668 56.041 21.2354 113.56 20.6816 171.413
c-0.00292969 0.269531 0.0625 0.513672 0.078125 0.773438c-0.0625 0.500977 -0.137695 0.998047 -0.200195 1.49902c-2.91602 23.1279 19.7861 44.2842 39.7754 50.1172c19.2412 5.61426 46.5469 -0.803711 52.2139 -23.2432
c21.7607 -86.1787 33.6357 -174.893 41.7471 -263.334c3.24512 -35.3916 5.47266 -70.9834 6.33301 -106.609c5.02832 -0.316406 10.0449 -0.719727 15.0293 -1.29883c32.1279 -3.7334 64.2178 -13.9688 90.5381 -33.2197
c27.8721 -20.3838 43.7246 -47.0791 54.8799 -79.1689c5.13867 -14.7793 -19.2568 -30.1377 -28.541 -16.1064c-17.5146 26.4736 -40.001 54.2549 -68.9844 68.5371c-19.4072 9.5625 -40.9053 14.6162 -62.5967 16.6973
c-0.350586 -34.8125 -2.14941 -69.5938 -5.80762 -104.178c-7.33789 -69.3535 -18.9756 -136.65 -46.6631 -201.078c-24.374 -56.7207 -62.3125 -106.826 -112.774 -142.825c-46.6943 -33.3105 -109.974 -48.584 -161.953 -18.0488
c-51.6074 30.3164 -74.2158 93.7861 -69.9912 151.16c4.86328 66.0576 35.9238 130.057 72.8516 184.067c36.3213 53.1191 84.8867 102.007 141.589 133.189c28.0537 15.4307 59.0176 27.1748 90.9893 34.4561c-3.9707 50.0176 -9.85352 99.9473 -17.1543 149.521
c-4.15918 28.248 -8.87793 56.4014 -13.5811 84.5547c-5.17871 -32.8848 -12.748 -65.3945 -22.8115 -97.1719c-16.8633 -53.2471 -38.377 -113.182 -78.7852 -153.486c-38.1143 -38.0205 -102.179 -68.3486 -147.641 -24.3984
c-22.3242 21.585 -36.0361 51.0059 -47.0635 79.7168c-11.7754 30.6631 -19.7334 63.335 -26.417 95.4404zM365.145 16.8994c6.6123 63.8711 5.67383 129.225 2.26953 193.271c-0.109375 2.06836 -0.25293 4.13965 -0.37207 6.20801
c-45.2578 -10.5459 -88.5225 -31.499 -125.879 -58.1162c-46.1221 -32.8633 -82.7275 -77.9619 -110.196 -127.223c-29.1992 -52.3613 -53.0186 -117.699 -35.4727 -177.759c14.6045 -49.9893 57.0996 -91.0635 111.927 -85.1338
c57.1182 6.17676 97.9482 49.0352 121.862 98.1895c22.9092 47.0889 30.5293 99.0283 35.8613 150.563z" />
    <glyph glyph-name="Y" unicode="&#xdd;" horiz-adv-x="594" 
d="M10.6807 393.628c-13.7344 65.999 -19.4326 133.769 -24.1611 200.891c-3.72363 53.0186 88.6611 75.54 93.4365 15.7715c5.17285 -64.7627 10.0762 -129.307 19.8643 -193.575c4.05566 -26.623 9.98242 -52.874 16.9854 -78.8682
c6.43359 -23.8887 11.2588 -49.373 21.4941 -72.0439c8.23633 -18.25 25.1934 -29.7812 46.0273 -24.9434c21.2822 4.94434 39.166 29.4277 50.2998 46.7139c28.8135 44.7383 47.0918 97.8633 60.3125 149.079c14.4668 56.041 21.2354 113.56 20.6816 171.413
c-0.00292969 0.269531 0.0625 0.513672 0.078125 0.773438c-0.0625 0.500977 -0.137695 0.998047 -0.200195 1.49902c-2.91602 23.1279 19.7861 44.2842 39.7754 50.1172c19.2412 5.61426 46.5469 -0.803711 52.2139 -23.2432
c21.7607 -86.1787 33.6357 -174.893 41.7471 -263.334c3.24512 -35.3916 5.47266 -70.9834 6.33301 -106.609c5.02832 -0.316406 10.0449 -0.719727 15.0293 -1.29883c32.1279 -3.7334 64.2178 -13.9688 90.5381 -33.2197
c27.8721 -20.3838 43.7246 -47.0791 54.8799 -79.1689c5.13867 -14.7793 -19.2568 -30.1377 -28.541 -16.1064c-17.5146 26.4736 -40.001 54.2549 -68.9844 68.5371c-19.4072 9.5625 -40.9053 14.6162 -62.5967 16.6973
c-0.350586 -34.8125 -2.14941 -69.5938 -5.80762 -104.178c-7.33789 -69.3535 -18.9756 -136.65 -46.6631 -201.078c-24.374 -56.7207 -62.3125 -106.826 -112.774 -142.825c-46.6943 -33.3105 -109.974 -48.584 -161.953 -18.0488
c-51.6074 30.3164 -74.2158 93.7861 -69.9912 151.16c4.86328 66.0576 35.9238 130.057 72.8516 184.067c36.3213 53.1191 84.8867 102.007 141.589 133.189c28.0537 15.4307 59.0176 27.1748 90.9893 34.4561c-3.9707 50.0176 -9.85352 99.9473 -17.1543 149.521
c-4.15918 28.248 -8.87793 56.4014 -13.5811 84.5547c-5.17871 -32.8848 -12.748 -65.3945 -22.8115 -97.1719c-16.8633 -53.2471 -38.377 -113.182 -78.7852 -153.486c-38.1143 -38.0205 -102.179 -68.3486 -147.641 -24.3984
c-22.3242 21.585 -36.0361 51.0059 -47.0635 79.7168c-11.7754 30.6631 -19.7334 63.335 -26.417 95.4404zM365.145 16.8994c6.6123 63.8711 5.67383 129.225 2.26953 193.271c-0.109375 2.06836 -0.25293 4.13965 -0.37207 6.20801
c-45.2578 -10.5459 -88.5225 -31.499 -125.879 -58.1162c-46.1221 -32.8633 -82.7275 -77.9619 -110.196 -127.223c-29.1992 -52.3613 -53.0186 -117.699 -35.4727 -177.759c14.6045 -49.9893 57.0996 -91.0635 111.927 -85.1338
c57.1182 6.17676 97.9482 49.0352 121.862 98.1895c22.9092 47.0889 30.5293 99.0283 35.8613 150.563z" />
    <glyph glyph-name="Z" unicode="Z" horiz-adv-x="545" 
d="M174.964 -115.085c-72.0596 -43.7188 -184.61 -54.085 -236.317 27.335c-22.9375 36.1143 -11.5498 81.6445 13.6465 113.729c22.9404 29.2109 56.5234 48.0742 91.3701 59.2832c64.6533 20.7939 133.574 19.333 202.664 16.2129
c6.86523 12.8301 13.3682 25.8535 19.4795 39.0527c30.7666 66.4648 51.6074 135.377 67.3662 206.783c0.854492 3.87695 1.6748 7.7793 2.48535 11.6875c-12.0879 -1.80859 -24.1826 -3.38574 -36.2588 -4.5625c-16.2725 -1.58984 -16.8291 17.8896 -4.02148 23.71
c3.37988 1.51465 6.74023 3.06641 10.082 4.65625c3.69531 1.7334 7 1.52051 9.62891 0.208984c8.67383 1.97461 17.4014 3.80859 26.166 5.53906c10.6211 62.3311 13.9316 127.112 1.31738 188.843c-6.65234 32.5625 -17.6357 64.5586 -45.5674 84.9795
c-30.3438 22.1836 -70.5449 19.5146 -103.649 5.41699c-61.2578 -26.082 -112.029 -82.2021 -144.423 -139.136c-16.2842 -28.623 -28.873 -59.1553 -37.1533 -91.0361c-4.75 -18.2998 -26.4639 -92.8604 5.84863 -94.1055
c19.0479 -0.735352 9.34766 -26.6982 -6.4834 -26.7236c-50.1299 -0.0810547 -41.3555 64.9941 -35.4473 96.9248c7.47559 40.4199 21.6133 79.8916 41.043 116.104c39.1406 72.9424 106.732 148.01 188.449 172.049c37.5225 11.0371 80.6025 8.82812 112.99 -14.9756
c28.5391 -20.9785 46.7197 -56.2197 59.7812 -88.3848c25.5312 -62.8691 33.2666 -130.607 31.0352 -197.982c14.5381 2.41602 29.0449 4.8291 43.4365 7.41406c19.5859 3.51758 17.7549 -23.9541 0.704102 -27.168c-15.1484 -2.85352 -30.3877 -5.89844 -45.6738 -8.90918
c-0.873047 -11.96 -2.02148 -23.8857 -3.41406 -35.7451c-9.59082 -81.6826 -31.3418 -162.758 -64.834 -237.972c73.7715 -0.491211 145.6 7.83887 210.337 50.8193c13.9248 9.24707 27.2773 -8.95215 13.2646 -18.2549
c-64.4844 -42.8105 -141.555 -55.1367 -217.623 -56.3604c-5.68848 -0.0908203 -11.3867 -0.116211 -17.0908 -0.0908203c-35.2256 -72.7363 -82.9092 -146.73 -153.139 -189.341zM-9.40332 22.7119c-9.21289 -10.8086 -19.418 -27.9785 -15.5312 -42.8389
c3.01953 -11.541 14.9697 -23.3945 24.5107 -30.0566c24.3076 -16.9727 56.3818 -13.8438 81.5068 -8.82129c4.13965 0.826172 8.34863 1.65527 12.4512 2.75684c-0.34375 0.0283203 5.90527 2.22461 7.16309 2.70605c7.16895 2.74414 14.3066 5.69141 21.2412 8.9834
c0.525391 0.25 9.00879 5.04395 8.92773 4.81543c1.86523 1.17676 3.73926 2.34082 5.57031 3.56738c7.03125 4.71289 13.5996 9.91992 20.209 15.1953c1.30469 1.04199 2.25 1.77441 2.93848 2.29395c0.541016 0.541016 1.2041 1.19824 2.05176 2.02734
c3.0293 2.95996 6.01172 5.95801 8.93457 9.02441c5.26953 5.53223 10.3447 11.2432 15.2393 17.1104c5.44824 6.53027 10.6963 13.249 15.8125 20.0459c2.55957 3.40137 5.05371 6.84961 7.5166 10.3203c0.625977 0.878906 3.46777 5.08789 4.15918 6.08301
c6.75293 10.2578 13.2334 20.6973 19.4385 31.2988c-52.5488 1.82715 -105.048 1.96777 -156.53 -9.54199c-31.1143 -6.95312 -64.3623 -20.0361 -85.6094 -44.9697z" />
    <glyph glyph-name="bracketleft" unicode="[" horiz-adv-x="279" 
d="M220.487 -156.062c14.0693 -13.6338 9.60156 -33.9395 -1.28223 -47.9395c-25.4531 -32.7471 -78.0459 -38.1445 -109.66 -11.1582c-30.5693 26.0918 -36.0361 65.5234 -42.207 102.852c-22.9717 138.953 -16.0498 280.416 -17.208 420.628
c-0.576172 69.6289 5.34766 140.043 24.2607 207.328c8.49902 30.2441 25.0996 60.1904 57.0273 69.7031c12.166 3.62402 28 4.57812 39.6279 -1.44922c8.6709 -4.49316 15.4492 -13.8838 21.0635 -21.6348c10.7393 -14.8262 -14.3066 -32.1777 -26.1074 -18.9688
c-2.5 2.80078 -14.2344 -2.73438 -14.8975 -3.24707c-7.44727 -5.74219 -10.3887 -16.0654 -12.2852 -24.708c-5.7207 -26.0791 -3.84961 -54.3584 -2.53516 -80.8408c2.73145 -55.0117 6.28906 -109.87 7.6377 -164.954c1.36133 -55.6191 1.01367 -111.254 2.375 -166.87
c1.35449 -55.4473 4.4082 -110.935 11.875 -165.928c3.10742 -22.9033 6.60547 -46.0654 12.7949 -68.374c1.03613 -3.7334 2.17188 -7.48535 3.68945 -11.0586c0.112305 -0.265625 0.212891 -0.5 0.303711 -0.712891c1.0957 -1.75879 2.3252 -3.45801 3.62988 -5.05664
c0.291016 -0.125 0.675781 -0.325195 1.24805 -0.672852c0.563477 -0.347656 1.0293 -0.641602 1.44531 -0.914062c13.3936 5.05078 27.8135 5.0166 39.2041 -6.02344z" />
    <glyph glyph-name="backslash" unicode="\" horiz-adv-x="381" 
d="M329.881 -138.91c14.2822 -55.998 -73.9316 -99.8691 -98.1611 -41.2832c-23.0088 55.6436 -36.1699 115.274 -50.2393 173.675c-13.7559 57.0986 -25.7656 114.583 -38.7861 171.851c-26.3389 115.854 -53.084 232.227 -91.7178 344.729
c-7.30664 21.2822 28.417 44.1855 41.4248 23.376c63.4766 -101.55 104.873 -213.523 138.381 -328.022c16.6221 -56.8047 32.4775 -113.829 48.4551 -170.818c16.2627 -57.9971 35.7607 -115.155 50.6436 -173.506z" />
    <glyph glyph-name="bracketright" unicode="]" horiz-adv-x="298" 
d="M243.993 120.591c3.77051 -65.2002 6.06641 -131.148 -0.0791016 -196.274c-3.19531 -33.8359 -6.38379 -69.8438 -18.1494 -101.946c-14.498 -39.5625 -46.1631 -64.6182 -88.7236 -65.4658c-22.2334 -0.441406 -36.0898 21.1943 -34.3936 40.9805
c1.69336 19.7295 16.6602 35.1064 34.5342 41.9756c0.472656 1.6084 1.12012 3.2666 1.4834 4.71875c3.47363 13.8906 5.61133 28.21 7.60449 42.373c3.93945 27.9785 5.65723 56.2891 6.48633 84.5176c3.14453 107.145 -7.18555 214.198 -14.2236 320.992
c-3.55469 53.9795 -8.00488 108.331 -16.1973 161.822c-3.12598 20.4121 -4.00488 43.9287 -13.1357 62.832c-3.22949 6.68359 -7.74512 12.7637 -14.9551 15.2041c-2.46875 0.838867 -9.92871 2.11914 -11.584 1.16113c-17.6865 -10.2266 -39.7695 0.375 -30.4502 22.3887
c13.083 30.9141 50.6367 38.377 79.9297 27.5059c30.5127 -11.3213 46.7783 -41.5342 57.3672 -70.3545c22.9971 -62.585 31.3271 -130.401 38.54 -196.318c7.12793 -65.1533 12.1602 -130.68 15.9463 -196.112z" />
    <glyph glyph-name="asciicircum" unicode="^" horiz-adv-x="271" 
d="M218.525 384.948c8.51465 -17.4736 -7.73438 -38.5146 -21.7188 -46.6348c-14.3477 -8.33008 -38.7842 -9.47559 -48.876 6.79297c-8.50488 13.7119 -15.3457 28.3477 -22.0078 43.0234c-0.485352 -0.873047 -0.982422 -1.74316 -1.46387 -2.61914
c-10.1699 -18.5098 -19.5479 -38.2109 -33.373 -54.3486c-11.3496 -13.2432 -41.0586 -13.9346 -41.084 8.63965c-0.0253906 25.7852 11.1865 50.666 21.1904 73.9385c8.95605 20.8379 20.0244 43.1523 38.7627 56.9521c24.4453 18.0029 50.4365 9.30664 65.3096 -14.6006
c14.748 -23.7012 30.9883 -45.9658 43.2607 -71.1436zM144.257 418.672c1.6084 0.748047 1.06738 0.925781 0 0z" />
    <glyph glyph-name="underscore" unicode="_" horiz-adv-x="384" 
d="M289.811 -20.6533c21.873 1.50781 43.875 -8.35645 44.6416 -33.4619c0.701172 -23.0371 -19.9766 -45.2295 -42.5225 -48.1709c-40.3076 -5.2666 -80.8379 -8.9873 -121.418 -11.3311c-36.7871 -2.125 -87.9717 -14.1787 -115.44 16.8379
c-6.84375 7.72656 -6.31836 22.4844 -1.07031 30.8174c0.27832 0.441406 0.553711 0.882812 0.832031 1.32422c7.16602 11.3809 18.0684 18.8789 31.8184 19.5391c7.04102 0.337891 11.6064 -0.100586 18.9785 1.25098c19.9268 3.65527 39.6914 7.02832 59.7715 9.87598
c41.3027 5.8584 82.79 10.4492 124.409 13.3184z" />
    <glyph glyph-name="grave" unicode="`" horiz-adv-x="206" 
d="M151.311 337.19c15.7061 -20.4404 -14.5508 -52.5059 -36.5557 -41.998c-54.7705 26.1602 -63.2725 96.3955 -64.7402 150.679c-1.17676 43.6025 73.5059 62.5781 77.1201 13.0146c1.5957 -21.8604 3.41992 -44.2031 7.07129 -65.8232
c3.08887 -18.29 5.52051 -40.7988 17.1045 -55.8721z" />
    <glyph glyph-name="a" unicode="a" horiz-adv-x="389" 
d="M387.692 159.76c8.97754 13.4717 34.6445 8.41113 24.8809 -8.80566c-17.7588 -31.3174 -31.1924 -64.7939 -47.877 -96.6523c-14.457 -27.6064 -33.0762 -58.7363 -60.8389 -74.749c-31.793 -18.3408 -62.334 -1.76855 -83.8164 23.6348
c-24.6396 29.1396 -33.2422 70.499 -38.7969 107.096c-2.86328 18.8633 -5.5166 38.6396 -7.35352 58.751c-8.33301 -23.8916 -16.7568 -47.752 -25.6436 -71.4619c-17.6484 -47.0889 -51.0938 -124.415 -115.309 -107.229
c-33.2822 8.90918 -48.3184 42.6328 -54.6992 73.7217c-7.21289 35.1289 -5.43262 69.6289 1.00781 104.814c12.3828 67.6602 46.7422 138.277 118.486 156.715c32.4756 8.3457 61.8213 0.654297 85.2783 -16.6445
c0.0185547 0.0683594 0.0341797 0.136719 0.0556641 0.205078c6.89648 22.7871 26.3545 39.2217 50.2773 40.5645c20.2646 1.13574 42.9238 -13.5557 41.9102 -36.1514c-1.11719 -24.8613 1.31445 -50.0361 1.27734 -74.9258
c-0.0527344 -33.918 0.751953 -68.0547 3.53027 -101.863c1.36719 -16.6504 2.76562 -33.3828 4.69629 -49.9775c0.134766 -1.1582 0.713867 -5.93359 1.03906 -8.65625c0.556641 -4.29297 1.7207 -13.4863 1.88672 -15.3105
c0.27832 -3.06348 0.672852 -6.1084 1.02637 -9.16211c0.0722656 -0.607422 0.128906 -1.11719 0.178711 -1.57129c0.0527344 -0.238281 0.118164 -0.547852 0.196289 -0.935547c0.722656 -3.57324 1.32031 -7.16895 1.91211 -10.7676
c0.660156 -2.66602 1.10449 -5.37305 1.85254 -8.02637c0.613281 -2.1748 1.49902 -4.28418 2.08398 -6.45605c0.106445 -0.391602 0.18457 -0.713867 0.256836 -1.01074c1.20117 -1.58301 2.3623 -3.2666 3.53223 -4.89648
c0.171875 -0.181641 0.31543 -0.337891 0.505859 -0.543945c-0.116211 0.106445 -0.216797 0.1875 -0.289062 0.237305c0.0849609 -0.119141 0.172852 -0.244141 0.257812 -0.360352c0.143555 -0.197266 0.234375 -0.332031 0.302734 -0.438477
c0.0595703 -0.0214844 0.12207 -0.0429688 0.181641 -0.0644531c-0.0498047 0.00976562 -0.0996094 0.0195312 -0.152344 0.0292969c0.00585938 -0.00976562 0.00878906 -0.015625 0.0146484 -0.0253906c0.106445 -0.0214844 0.222656 -0.046875 0.326172 -0.0722656
c4.0957 -4.43457 1.75488 -1.71875 0.102539 -0.0322266c0.234375 -0.0751953 0.475586 -0.137695 0.713867 -0.197266c2.01855 -0.631836 3.08887 -1.31738 6.35938 0.0722656c7.47266 3.17285 16.5908 21.5381 21.2812 29.3613
c7.21289 12.0322 13.5811 24.5459 19.7363 37.1445c12.4199 25.4219 23.8945 51.0283 39.6279 74.6416zM149.202 175.258c6.60254 18.9316 13.4404 37.7754 20.3994 56.5693c-8.19531 13.6279 -17.4355 27.8154 -32.2021 31.7832
c-7.27832 1.95605 -13.0732 0.163086 -19.5508 -3.38281c3.47656 1.90234 -7.17871 -6.31836 -5.36035 -4.12207c-3.55762 -3.66113 -6.63965 -7.82031 -9.6748 -11.8975c-0.691406 -0.929688 -1.12598 -1.49023 -1.40137 -1.8252
c-0.143555 -0.241211 -0.28125 -0.466797 -0.46582 -0.770508c-1.33301 -2.16504 -2.56934 -4.39941 -3.74902 -6.65527c-2.39355 -4.5752 -4.38672 -9.31934 -6.46094 -14.041c-3.97754 -9.05273 -5.78613 -13.5615 -9.30664 -25.5244
c-6.52734 -22.1768 -13.1084 -44.917 -14.6162 -68.0166c-1.42383 -21.8047 -3.2793 -46.1533 1.84277 -67.5664c1.75195 -7.32227 4.37109 -18.0898 9.1709 -23.8506c1.12988 -1.35449 2.34668 -3.68262 4.31836 -4.21777c-2.07129 0.857422 4.25 5.62598 5.58887 7.19727
c15.4082 18.1279 25.6504 42.2891 34.9658 63.9561c10.1572 23.623 18.04 48.1064 26.502 72.3643zM298.717 19.5752c-0.0371094 -0.19043 0.165039 -0.375 0.49707 -0.541016c-0.140625 0.147461 -0.3125 0.337891 -0.49707 0.541016zM299.017 18.959
c0.12793 -0.0214844 0.230469 -0.0507812 0.352539 -0.0791016l-0.0175781 0.0175781c-0.119141 0.0214844 -0.207031 0.0400391 -0.334961 0.0615234z" />
    <glyph glyph-name="a" unicode="&#xe5;" horiz-adv-x="389" 
d="M387.692 159.76c8.97754 13.4717 34.6445 8.41113 24.8809 -8.80566c-17.7588 -31.3174 -31.1924 -64.7939 -47.877 -96.6523c-14.457 -27.6064 -33.0762 -58.7363 -60.8389 -74.749c-31.793 -18.3408 -62.334 -1.76855 -83.8164 23.6348
c-24.6396 29.1396 -33.2422 70.499 -38.7969 107.096c-2.86328 18.8633 -5.5166 38.6396 -7.35352 58.751c-8.33301 -23.8916 -16.7568 -47.752 -25.6436 -71.4619c-17.6484 -47.0889 -51.0938 -124.415 -115.309 -107.229
c-33.2822 8.90918 -48.3184 42.6328 -54.6992 73.7217c-7.21289 35.1289 -5.43262 69.6289 1.00781 104.814c12.3828 67.6602 46.7422 138.277 118.486 156.715c32.4756 8.3457 61.8213 0.654297 85.2783 -16.6445
c0.0185547 0.0683594 0.0341797 0.136719 0.0556641 0.205078c6.89648 22.7871 26.3545 39.2217 50.2773 40.5645c20.2646 1.13574 42.9238 -13.5557 41.9102 -36.1514c-1.11719 -24.8613 1.31445 -50.0361 1.27734 -74.9258
c-0.0527344 -33.918 0.751953 -68.0547 3.53027 -101.863c1.36719 -16.6504 2.76562 -33.3828 4.69629 -49.9775c0.134766 -1.1582 0.713867 -5.93359 1.03906 -8.65625c0.556641 -4.29297 1.7207 -13.4863 1.88672 -15.3105
c0.27832 -3.06348 0.672852 -6.1084 1.02637 -9.16211c0.0722656 -0.607422 0.128906 -1.11719 0.178711 -1.57129c0.0527344 -0.238281 0.118164 -0.547852 0.196289 -0.935547c0.722656 -3.57324 1.32031 -7.16895 1.91211 -10.7676
c0.660156 -2.66602 1.10449 -5.37305 1.85254 -8.02637c0.613281 -2.1748 1.49902 -4.28418 2.08398 -6.45605c0.106445 -0.391602 0.18457 -0.713867 0.256836 -1.01074c1.20117 -1.58301 2.3623 -3.2666 3.53223 -4.89648
c0.171875 -0.181641 0.31543 -0.337891 0.505859 -0.543945c-0.116211 0.106445 -0.216797 0.1875 -0.289062 0.237305c0.0849609 -0.119141 0.172852 -0.244141 0.257812 -0.360352c0.143555 -0.197266 0.234375 -0.332031 0.302734 -0.438477
c0.0595703 -0.0214844 0.12207 -0.0429688 0.181641 -0.0644531c-0.0498047 0.00976562 -0.0996094 0.0195312 -0.152344 0.0292969c0.00585938 -0.00976562 0.00878906 -0.015625 0.0146484 -0.0253906c0.106445 -0.0214844 0.222656 -0.046875 0.326172 -0.0722656
c4.0957 -4.43457 1.75488 -1.71875 0.102539 -0.0322266c0.234375 -0.0751953 0.475586 -0.137695 0.713867 -0.197266c2.01855 -0.631836 3.08887 -1.31738 6.35938 0.0722656c7.47266 3.17285 16.5908 21.5381 21.2812 29.3613
c7.21289 12.0322 13.5811 24.5459 19.7363 37.1445c12.4199 25.4219 23.8945 51.0283 39.6279 74.6416zM149.202 175.258c6.60254 18.9316 13.4404 37.7754 20.3994 56.5693c-8.19531 13.6279 -17.4355 27.8154 -32.2021 31.7832
c-7.27832 1.95605 -13.0732 0.163086 -19.5508 -3.38281c3.47656 1.90234 -7.17871 -6.31836 -5.36035 -4.12207c-3.55762 -3.66113 -6.63965 -7.82031 -9.6748 -11.8975c-0.691406 -0.929688 -1.12598 -1.49023 -1.40137 -1.8252
c-0.143555 -0.241211 -0.28125 -0.466797 -0.46582 -0.770508c-1.33301 -2.16504 -2.56934 -4.39941 -3.74902 -6.65527c-2.39355 -4.5752 -4.38672 -9.31934 -6.46094 -14.041c-3.97754 -9.05273 -5.78613 -13.5615 -9.30664 -25.5244
c-6.52734 -22.1768 -13.1084 -44.917 -14.6162 -68.0166c-1.42383 -21.8047 -3.2793 -46.1533 1.84277 -67.5664c1.75195 -7.32227 4.37109 -18.0898 9.1709 -23.8506c1.12988 -1.35449 2.34668 -3.68262 4.31836 -4.21777c-2.07129 0.857422 4.25 5.62598 5.58887 7.19727
c15.4082 18.1279 25.6504 42.2891 34.9658 63.9561c10.1572 23.623 18.04 48.1064 26.502 72.3643zM298.717 19.5752c-0.0371094 -0.19043 0.165039 -0.375 0.49707 -0.541016c-0.140625 0.147461 -0.3125 0.337891 -0.49707 0.541016zM299.017 18.959
c0.12793 -0.0214844 0.230469 -0.0507812 0.352539 -0.0791016l-0.0175781 0.0175781c-0.119141 0.0214844 -0.207031 0.0400391 -0.334961 0.0615234z" />
    <glyph glyph-name="a" unicode="&#xe4;" horiz-adv-x="389" 
d="M387.692 159.76c8.97754 13.4717 34.6445 8.41113 24.8809 -8.80566c-17.7588 -31.3174 -31.1924 -64.7939 -47.877 -96.6523c-14.457 -27.6064 -33.0762 -58.7363 -60.8389 -74.749c-31.793 -18.3408 -62.334 -1.76855 -83.8164 23.6348
c-24.6396 29.1396 -33.2422 70.499 -38.7969 107.096c-2.86328 18.8633 -5.5166 38.6396 -7.35352 58.751c-8.33301 -23.8916 -16.7568 -47.752 -25.6436 -71.4619c-17.6484 -47.0889 -51.0938 -124.415 -115.309 -107.229
c-33.2822 8.90918 -48.3184 42.6328 -54.6992 73.7217c-7.21289 35.1289 -5.43262 69.6289 1.00781 104.814c12.3828 67.6602 46.7422 138.277 118.486 156.715c32.4756 8.3457 61.8213 0.654297 85.2783 -16.6445
c0.0185547 0.0683594 0.0341797 0.136719 0.0556641 0.205078c6.89648 22.7871 26.3545 39.2217 50.2773 40.5645c20.2646 1.13574 42.9238 -13.5557 41.9102 -36.1514c-1.11719 -24.8613 1.31445 -50.0361 1.27734 -74.9258
c-0.0527344 -33.918 0.751953 -68.0547 3.53027 -101.863c1.36719 -16.6504 2.76562 -33.3828 4.69629 -49.9775c0.134766 -1.1582 0.713867 -5.93359 1.03906 -8.65625c0.556641 -4.29297 1.7207 -13.4863 1.88672 -15.3105
c0.27832 -3.06348 0.672852 -6.1084 1.02637 -9.16211c0.0722656 -0.607422 0.128906 -1.11719 0.178711 -1.57129c0.0527344 -0.238281 0.118164 -0.547852 0.196289 -0.935547c0.722656 -3.57324 1.32031 -7.16895 1.91211 -10.7676
c0.660156 -2.66602 1.10449 -5.37305 1.85254 -8.02637c0.613281 -2.1748 1.49902 -4.28418 2.08398 -6.45605c0.106445 -0.391602 0.18457 -0.713867 0.256836 -1.01074c1.20117 -1.58301 2.3623 -3.2666 3.53223 -4.89648
c0.171875 -0.181641 0.31543 -0.337891 0.505859 -0.543945c-0.116211 0.106445 -0.216797 0.1875 -0.289062 0.237305c0.0849609 -0.119141 0.172852 -0.244141 0.257812 -0.360352c0.143555 -0.197266 0.234375 -0.332031 0.302734 -0.438477
c0.0595703 -0.0214844 0.12207 -0.0429688 0.181641 -0.0644531c-0.0498047 0.00976562 -0.0996094 0.0195312 -0.152344 0.0292969c0.00585938 -0.00976562 0.00878906 -0.015625 0.0146484 -0.0253906c0.106445 -0.0214844 0.222656 -0.046875 0.326172 -0.0722656
c4.0957 -4.43457 1.75488 -1.71875 0.102539 -0.0322266c0.234375 -0.0751953 0.475586 -0.137695 0.713867 -0.197266c2.01855 -0.631836 3.08887 -1.31738 6.35938 0.0722656c7.47266 3.17285 16.5908 21.5381 21.2812 29.3613
c7.21289 12.0322 13.5811 24.5459 19.7363 37.1445c12.4199 25.4219 23.8945 51.0283 39.6279 74.6416zM149.202 175.258c6.60254 18.9316 13.4404 37.7754 20.3994 56.5693c-8.19531 13.6279 -17.4355 27.8154 -32.2021 31.7832
c-7.27832 1.95605 -13.0732 0.163086 -19.5508 -3.38281c3.47656 1.90234 -7.17871 -6.31836 -5.36035 -4.12207c-3.55762 -3.66113 -6.63965 -7.82031 -9.6748 -11.8975c-0.691406 -0.929688 -1.12598 -1.49023 -1.40137 -1.8252
c-0.143555 -0.241211 -0.28125 -0.466797 -0.46582 -0.770508c-1.33301 -2.16504 -2.56934 -4.39941 -3.74902 -6.65527c-2.39355 -4.5752 -4.38672 -9.31934 -6.46094 -14.041c-3.97754 -9.05273 -5.78613 -13.5615 -9.30664 -25.5244
c-6.52734 -22.1768 -13.1084 -44.917 -14.6162 -68.0166c-1.42383 -21.8047 -3.2793 -46.1533 1.84277 -67.5664c1.75195 -7.32227 4.37109 -18.0898 9.1709 -23.8506c1.12988 -1.35449 2.34668 -3.68262 4.31836 -4.21777c-2.07129 0.857422 4.25 5.62598 5.58887 7.19727
c15.4082 18.1279 25.6504 42.2891 34.9658 63.9561c10.1572 23.623 18.04 48.1064 26.502 72.3643zM298.717 19.5752c-0.0371094 -0.19043 0.165039 -0.375 0.49707 -0.541016c-0.140625 0.147461 -0.3125 0.337891 -0.49707 0.541016zM299.017 18.959
c0.12793 -0.0214844 0.230469 -0.0507812 0.352539 -0.0791016l-0.0175781 0.0175781c-0.119141 0.0214844 -0.207031 0.0400391 -0.334961 0.0615234z" />
    <glyph glyph-name="a" unicode="&#xe3;" horiz-adv-x="389" 
d="M387.692 159.76c8.97754 13.4717 34.6445 8.41113 24.8809 -8.80566c-17.7588 -31.3174 -31.1924 -64.7939 -47.877 -96.6523c-14.457 -27.6064 -33.0762 -58.7363 -60.8389 -74.749c-31.793 -18.3408 -62.334 -1.76855 -83.8164 23.6348
c-24.6396 29.1396 -33.2422 70.499 -38.7969 107.096c-2.86328 18.8633 -5.5166 38.6396 -7.35352 58.751c-8.33301 -23.8916 -16.7568 -47.752 -25.6436 -71.4619c-17.6484 -47.0889 -51.0938 -124.415 -115.309 -107.229
c-33.2822 8.90918 -48.3184 42.6328 -54.6992 73.7217c-7.21289 35.1289 -5.43262 69.6289 1.00781 104.814c12.3828 67.6602 46.7422 138.277 118.486 156.715c32.4756 8.3457 61.8213 0.654297 85.2783 -16.6445
c0.0185547 0.0683594 0.0341797 0.136719 0.0556641 0.205078c6.89648 22.7871 26.3545 39.2217 50.2773 40.5645c20.2646 1.13574 42.9238 -13.5557 41.9102 -36.1514c-1.11719 -24.8613 1.31445 -50.0361 1.27734 -74.9258
c-0.0527344 -33.918 0.751953 -68.0547 3.53027 -101.863c1.36719 -16.6504 2.76562 -33.3828 4.69629 -49.9775c0.134766 -1.1582 0.713867 -5.93359 1.03906 -8.65625c0.556641 -4.29297 1.7207 -13.4863 1.88672 -15.3105
c0.27832 -3.06348 0.672852 -6.1084 1.02637 -9.16211c0.0722656 -0.607422 0.128906 -1.11719 0.178711 -1.57129c0.0527344 -0.238281 0.118164 -0.547852 0.196289 -0.935547c0.722656 -3.57324 1.32031 -7.16895 1.91211 -10.7676
c0.660156 -2.66602 1.10449 -5.37305 1.85254 -8.02637c0.613281 -2.1748 1.49902 -4.28418 2.08398 -6.45605c0.106445 -0.391602 0.18457 -0.713867 0.256836 -1.01074c1.20117 -1.58301 2.3623 -3.2666 3.53223 -4.89648
c0.171875 -0.181641 0.31543 -0.337891 0.505859 -0.543945c-0.116211 0.106445 -0.216797 0.1875 -0.289062 0.237305c0.0849609 -0.119141 0.172852 -0.244141 0.257812 -0.360352c0.143555 -0.197266 0.234375 -0.332031 0.302734 -0.438477
c0.0595703 -0.0214844 0.12207 -0.0429688 0.181641 -0.0644531c-0.0498047 0.00976562 -0.0996094 0.0195312 -0.152344 0.0292969c0.00585938 -0.00976562 0.00878906 -0.015625 0.0146484 -0.0253906c0.106445 -0.0214844 0.222656 -0.046875 0.326172 -0.0722656
c4.0957 -4.43457 1.75488 -1.71875 0.102539 -0.0322266c0.234375 -0.0751953 0.475586 -0.137695 0.713867 -0.197266c2.01855 -0.631836 3.08887 -1.31738 6.35938 0.0722656c7.47266 3.17285 16.5908 21.5381 21.2812 29.3613
c7.21289 12.0322 13.5811 24.5459 19.7363 37.1445c12.4199 25.4219 23.8945 51.0283 39.6279 74.6416zM149.202 175.258c6.60254 18.9316 13.4404 37.7754 20.3994 56.5693c-8.19531 13.6279 -17.4355 27.8154 -32.2021 31.7832
c-7.27832 1.95605 -13.0732 0.163086 -19.5508 -3.38281c3.47656 1.90234 -7.17871 -6.31836 -5.36035 -4.12207c-3.55762 -3.66113 -6.63965 -7.82031 -9.6748 -11.8975c-0.691406 -0.929688 -1.12598 -1.49023 -1.40137 -1.8252
c-0.143555 -0.241211 -0.28125 -0.466797 -0.46582 -0.770508c-1.33301 -2.16504 -2.56934 -4.39941 -3.74902 -6.65527c-2.39355 -4.5752 -4.38672 -9.31934 -6.46094 -14.041c-3.97754 -9.05273 -5.78613 -13.5615 -9.30664 -25.5244
c-6.52734 -22.1768 -13.1084 -44.917 -14.6162 -68.0166c-1.42383 -21.8047 -3.2793 -46.1533 1.84277 -67.5664c1.75195 -7.32227 4.37109 -18.0898 9.1709 -23.8506c1.12988 -1.35449 2.34668 -3.68262 4.31836 -4.21777c-2.07129 0.857422 4.25 5.62598 5.58887 7.19727
c15.4082 18.1279 25.6504 42.2891 34.9658 63.9561c10.1572 23.623 18.04 48.1064 26.502 72.3643zM298.717 19.5752c-0.0371094 -0.19043 0.165039 -0.375 0.49707 -0.541016c-0.140625 0.147461 -0.3125 0.337891 -0.49707 0.541016zM299.017 18.959
c0.12793 -0.0214844 0.230469 -0.0507812 0.352539 -0.0791016l-0.0175781 0.0175781c-0.119141 0.0214844 -0.207031 0.0400391 -0.334961 0.0615234z" />
    <glyph glyph-name="a" unicode="&#xe2;" horiz-adv-x="389" 
d="M387.692 159.76c8.97754 13.4717 34.6445 8.41113 24.8809 -8.80566c-17.7588 -31.3174 -31.1924 -64.7939 -47.877 -96.6523c-14.457 -27.6064 -33.0762 -58.7363 -60.8389 -74.749c-31.793 -18.3408 -62.334 -1.76855 -83.8164 23.6348
c-24.6396 29.1396 -33.2422 70.499 -38.7969 107.096c-2.86328 18.8633 -5.5166 38.6396 -7.35352 58.751c-8.33301 -23.8916 -16.7568 -47.752 -25.6436 -71.4619c-17.6484 -47.0889 -51.0938 -124.415 -115.309 -107.229
c-33.2822 8.90918 -48.3184 42.6328 -54.6992 73.7217c-7.21289 35.1289 -5.43262 69.6289 1.00781 104.814c12.3828 67.6602 46.7422 138.277 118.486 156.715c32.4756 8.3457 61.8213 0.654297 85.2783 -16.6445
c0.0185547 0.0683594 0.0341797 0.136719 0.0556641 0.205078c6.89648 22.7871 26.3545 39.2217 50.2773 40.5645c20.2646 1.13574 42.9238 -13.5557 41.9102 -36.1514c-1.11719 -24.8613 1.31445 -50.0361 1.27734 -74.9258
c-0.0527344 -33.918 0.751953 -68.0547 3.53027 -101.863c1.36719 -16.6504 2.76562 -33.3828 4.69629 -49.9775c0.134766 -1.1582 0.713867 -5.93359 1.03906 -8.65625c0.556641 -4.29297 1.7207 -13.4863 1.88672 -15.3105
c0.27832 -3.06348 0.672852 -6.1084 1.02637 -9.16211c0.0722656 -0.607422 0.128906 -1.11719 0.178711 -1.57129c0.0527344 -0.238281 0.118164 -0.547852 0.196289 -0.935547c0.722656 -3.57324 1.32031 -7.16895 1.91211 -10.7676
c0.660156 -2.66602 1.10449 -5.37305 1.85254 -8.02637c0.613281 -2.1748 1.49902 -4.28418 2.08398 -6.45605c0.106445 -0.391602 0.18457 -0.713867 0.256836 -1.01074c1.20117 -1.58301 2.3623 -3.2666 3.53223 -4.89648
c0.171875 -0.181641 0.31543 -0.337891 0.505859 -0.543945c-0.116211 0.106445 -0.216797 0.1875 -0.289062 0.237305c0.0849609 -0.119141 0.172852 -0.244141 0.257812 -0.360352c0.143555 -0.197266 0.234375 -0.332031 0.302734 -0.438477
c0.0595703 -0.0214844 0.12207 -0.0429688 0.181641 -0.0644531c-0.0498047 0.00976562 -0.0996094 0.0195312 -0.152344 0.0292969c0.00585938 -0.00976562 0.00878906 -0.015625 0.0146484 -0.0253906c0.106445 -0.0214844 0.222656 -0.046875 0.326172 -0.0722656
c4.0957 -4.43457 1.75488 -1.71875 0.102539 -0.0322266c0.234375 -0.0751953 0.475586 -0.137695 0.713867 -0.197266c2.01855 -0.631836 3.08887 -1.31738 6.35938 0.0722656c7.47266 3.17285 16.5908 21.5381 21.2812 29.3613
c7.21289 12.0322 13.5811 24.5459 19.7363 37.1445c12.4199 25.4219 23.8945 51.0283 39.6279 74.6416zM149.202 175.258c6.60254 18.9316 13.4404 37.7754 20.3994 56.5693c-8.19531 13.6279 -17.4355 27.8154 -32.2021 31.7832
c-7.27832 1.95605 -13.0732 0.163086 -19.5508 -3.38281c3.47656 1.90234 -7.17871 -6.31836 -5.36035 -4.12207c-3.55762 -3.66113 -6.63965 -7.82031 -9.6748 -11.8975c-0.691406 -0.929688 -1.12598 -1.49023 -1.40137 -1.8252
c-0.143555 -0.241211 -0.28125 -0.466797 -0.46582 -0.770508c-1.33301 -2.16504 -2.56934 -4.39941 -3.74902 -6.65527c-2.39355 -4.5752 -4.38672 -9.31934 -6.46094 -14.041c-3.97754 -9.05273 -5.78613 -13.5615 -9.30664 -25.5244
c-6.52734 -22.1768 -13.1084 -44.917 -14.6162 -68.0166c-1.42383 -21.8047 -3.2793 -46.1533 1.84277 -67.5664c1.75195 -7.32227 4.37109 -18.0898 9.1709 -23.8506c1.12988 -1.35449 2.34668 -3.68262 4.31836 -4.21777c-2.07129 0.857422 4.25 5.62598 5.58887 7.19727
c15.4082 18.1279 25.6504 42.2891 34.9658 63.9561c10.1572 23.623 18.04 48.1064 26.502 72.3643zM298.717 19.5752c-0.0371094 -0.19043 0.165039 -0.375 0.49707 -0.541016c-0.140625 0.147461 -0.3125 0.337891 -0.49707 0.541016zM299.017 18.959
c0.12793 -0.0214844 0.230469 -0.0507812 0.352539 -0.0791016l-0.0175781 0.0175781c-0.119141 0.0214844 -0.207031 0.0400391 -0.334961 0.0615234z" />
    <glyph glyph-name="a" unicode="&#xe1;" horiz-adv-x="389" 
d="M387.692 159.76c8.97754 13.4717 34.6445 8.41113 24.8809 -8.80566c-17.7588 -31.3174 -31.1924 -64.7939 -47.877 -96.6523c-14.457 -27.6064 -33.0762 -58.7363 -60.8389 -74.749c-31.793 -18.3408 -62.334 -1.76855 -83.8164 23.6348
c-24.6396 29.1396 -33.2422 70.499 -38.7969 107.096c-2.86328 18.8633 -5.5166 38.6396 -7.35352 58.751c-8.33301 -23.8916 -16.7568 -47.752 -25.6436 -71.4619c-17.6484 -47.0889 -51.0938 -124.415 -115.309 -107.229
c-33.2822 8.90918 -48.3184 42.6328 -54.6992 73.7217c-7.21289 35.1289 -5.43262 69.6289 1.00781 104.814c12.3828 67.6602 46.7422 138.277 118.486 156.715c32.4756 8.3457 61.8213 0.654297 85.2783 -16.6445
c0.0185547 0.0683594 0.0341797 0.136719 0.0556641 0.205078c6.89648 22.7871 26.3545 39.2217 50.2773 40.5645c20.2646 1.13574 42.9238 -13.5557 41.9102 -36.1514c-1.11719 -24.8613 1.31445 -50.0361 1.27734 -74.9258
c-0.0527344 -33.918 0.751953 -68.0547 3.53027 -101.863c1.36719 -16.6504 2.76562 -33.3828 4.69629 -49.9775c0.134766 -1.1582 0.713867 -5.93359 1.03906 -8.65625c0.556641 -4.29297 1.7207 -13.4863 1.88672 -15.3105
c0.27832 -3.06348 0.672852 -6.1084 1.02637 -9.16211c0.0722656 -0.607422 0.128906 -1.11719 0.178711 -1.57129c0.0527344 -0.238281 0.118164 -0.547852 0.196289 -0.935547c0.722656 -3.57324 1.32031 -7.16895 1.91211 -10.7676
c0.660156 -2.66602 1.10449 -5.37305 1.85254 -8.02637c0.613281 -2.1748 1.49902 -4.28418 2.08398 -6.45605c0.106445 -0.391602 0.18457 -0.713867 0.256836 -1.01074c1.20117 -1.58301 2.3623 -3.2666 3.53223 -4.89648
c0.171875 -0.181641 0.31543 -0.337891 0.505859 -0.543945c-0.116211 0.106445 -0.216797 0.1875 -0.289062 0.237305c0.0849609 -0.119141 0.172852 -0.244141 0.257812 -0.360352c0.143555 -0.197266 0.234375 -0.332031 0.302734 -0.438477
c0.0595703 -0.0214844 0.12207 -0.0429688 0.181641 -0.0644531c-0.0498047 0.00976562 -0.0996094 0.0195312 -0.152344 0.0292969c0.00585938 -0.00976562 0.00878906 -0.015625 0.0146484 -0.0253906c0.106445 -0.0214844 0.222656 -0.046875 0.326172 -0.0722656
c4.0957 -4.43457 1.75488 -1.71875 0.102539 -0.0322266c0.234375 -0.0751953 0.475586 -0.137695 0.713867 -0.197266c2.01855 -0.631836 3.08887 -1.31738 6.35938 0.0722656c7.47266 3.17285 16.5908 21.5381 21.2812 29.3613
c7.21289 12.0322 13.5811 24.5459 19.7363 37.1445c12.4199 25.4219 23.8945 51.0283 39.6279 74.6416zM149.202 175.258c6.60254 18.9316 13.4404 37.7754 20.3994 56.5693c-8.19531 13.6279 -17.4355 27.8154 -32.2021 31.7832
c-7.27832 1.95605 -13.0732 0.163086 -19.5508 -3.38281c3.47656 1.90234 -7.17871 -6.31836 -5.36035 -4.12207c-3.55762 -3.66113 -6.63965 -7.82031 -9.6748 -11.8975c-0.691406 -0.929688 -1.12598 -1.49023 -1.40137 -1.8252
c-0.143555 -0.241211 -0.28125 -0.466797 -0.46582 -0.770508c-1.33301 -2.16504 -2.56934 -4.39941 -3.74902 -6.65527c-2.39355 -4.5752 -4.38672 -9.31934 -6.46094 -14.041c-3.97754 -9.05273 -5.78613 -13.5615 -9.30664 -25.5244
c-6.52734 -22.1768 -13.1084 -44.917 -14.6162 -68.0166c-1.42383 -21.8047 -3.2793 -46.1533 1.84277 -67.5664c1.75195 -7.32227 4.37109 -18.0898 9.1709 -23.8506c1.12988 -1.35449 2.34668 -3.68262 4.31836 -4.21777c-2.07129 0.857422 4.25 5.62598 5.58887 7.19727
c15.4082 18.1279 25.6504 42.2891 34.9658 63.9561c10.1572 23.623 18.04 48.1064 26.502 72.3643zM298.717 19.5752c-0.0371094 -0.19043 0.165039 -0.375 0.49707 -0.541016c-0.140625 0.147461 -0.3125 0.337891 -0.49707 0.541016zM299.017 18.959
c0.12793 -0.0214844 0.230469 -0.0507812 0.352539 -0.0791016l-0.0175781 0.0175781c-0.119141 0.0214844 -0.207031 0.0400391 -0.334961 0.0615234z" />
    <glyph glyph-name="b" unicode="b" horiz-adv-x="448" 
d="M449.034 148.372c12.7295 14.3008 35.9404 -0.676758 22.1816 -16.1289c-32.2471 -36.2275 -73.9092 -51.958 -118.31 -58.5791c-2.53125 -15.7305 -6.33984 -31.1357 -11.6377 -45.8369c-20.6748 -57.3682 -67.2129 -104.957 -132.226 -102.691
c-36.1055 1.26074 -78.6631 19.8457 -94.0186 53.291c-15.5244 -27.4219 -62.1279 -35.6172 -77.1455 -2.0127c-30.2314 67.6504 -35.708 147.229 -40.4424 220.359c-4.59082 70.9111 -6.59375 142.07 -4.96973 213.123c2.98828 130.661 21.166 259.436 77.5859 378.575
c24.042 50.7656 61.6426 100.298 109.448 131.052c22.8438 14.6953 51.4639 24.959 77.665 12.7803c20.7344 -9.63477 31.4268 -29.8682 36.4023 -51.2686c13.6963 -58.9082 -1.83691 -122.701 -15.2334 -180.27c-14.7266 -63.2891 -32.6885 -125.786 -52.083 -187.785
c-37.6035 -120.219 -79.5352 -239.023 -121.63 -357.728c1.24219 -14.3848 2.71582 -28.751 4.27441 -43.1045c6.57422 20.9971 13.79 41.7002 21.0342 61.8086c17.7207 49.1787 38.6553 102.914 71.1182 144.489c11.3184 14.501 28.1035 27.6309 47.4014 27.1768
c21.1533 -0.49707 39.5967 -15.7988 53.2275 -30.5059c34.5938 -37.3223 44.7383 -87.5527 51.4629 -136.271c3.44531 -24.9619 4.70996 -51.2197 2.92969 -77.1865c35.0635 6.07031 68.7402 19.498 92.9639 46.7129zM97.6162 355.386
c0.397461 -43.4023 0.951172 -86.8398 2.75684 -130.221c35.5947 100.902 70.5264 202.058 102.104 304.29c17.6895 57.2744 34.1709 114.962 47.123 173.507c6.54004 29.5713 12.9609 59.4551 16.0215 89.624c2.58203 25.4375 5.01074 55.1807 -3.68848 79.7354
c-7.91992 22.3613 -25.6035 36.1582 -47.7676 21.2383c-19.6699 -13.2432 -32.5469 -34.4189 -42.5732 -55.3506c-21.9863 -45.8994 -34.6533 -97.2285 -45.2773 -146.765c-23.7383 -110.688 -29.7529 -221.284 -28.6982 -336.059zM247.575 49.3408
c2.24707 6.5498 4.125 13.2285 5.7959 19.9502c-18.4746 0.15918 -38.0449 -0.300781 -55.3682 -6.7998c-12.248 -4.59668 -29.6094 -13.5146 -28.9268 -28.6475c0.584961 -12.9648 4.80664 -20.3096 17.3926 -22.25c8.56445 -1.32031 9.73828 -0.268555 18.1875 0.614258
c1.31152 0.137695 2.30078 0.21875 3.04199 0.259766c0.663086 0.325195 1.7334 0.772461 3.39551 1.38867c2.95703 1.0957 5.99512 2.24121 8.96484 3.26172c2.20898 1.07324 3.56348 1.70215 4.09863 1.90527c1.38965 0.844727 2.80762 1.64258 4.16211 2.54102
c0.722656 0.366211 2.60352 1.71191 3.71094 2.45703c2.28711 2.39355 4.41211 4.99707 6.49023 7.47559c6.63379 7.90723 1.60156 2.5752 0.505859 0.647461c2.44727 4.30273 4.54688 8.69629 6.79395 13.0957c0.462891 0.910156 0.854492 1.66406 1.19238 2.30859
c0.0966797 0.37207 0.271484 0.944336 0.5625 1.79199zM268.795 193.428c0.685547 35.5859 2.54102 79.4844 -14.4668 111.984c-11.6689 22.2861 -29.0928 -2.09375 -36.5713 -14.1133c-10.3262 -16.5947 -19.6328 -33.8779 -28.2227 -51.4268
c-17.4766 -35.7109 -31.8457 -72.8457 -44.1465 -110.628c-8.96484 -27.5371 -15.7207 -55.8096 -23.5596 -83.6943c17.458 25.5967 49.9609 42.4072 78.6777 48.9854c19.5645 4.47754 39.3193 5.03418 59.1367 4.61816c5.63867 31.1357 8.53906 62.4062 9.15234 94.2744z
" />
    <glyph glyph-name="c" unicode="c" horiz-adv-x="236" 
d="M236.619 157.669c8.24219 14.3096 33.7217 8.03711 24.5059 -8.66992c-25.6406 -46.4785 -57.042 -93.3418 -99.5117 -126.205c-18.6475 -14.4287 -41.2344 -27.29 -64.2373 -32.835c-30.2627 -7.29785 -59.1514 3.47949 -80.0449 25.9346
c-41.9785 45.1201 -46.5781 118.795 -37.1689 176.332c9.71973 59.4336 47.9092 135.671 116.652 138.635c25.666 1.10449 47.5703 -10.6963 60.6914 -33.001c13.96 -23.7285 11.2529 -51.8975 12.9023 -78.3174c1.12988 -18.1436 -29.8271 -25.7666 -31.9365 -5.38867
c-1.84961 17.8809 1.5957 65.4199 -24.042 69.9102c-0.30957 -0.46582 -0.650391 -0.991211 -1.05762 -1.66406c1.1582 1.90234 -6.70898 -10.6055 -7.48828 -11.6221c-5.7793 -10.0508 -10.3916 -20.7969 -14.957 -31.4238
c-1.3584 -2.87598 -2.6416 -5.78027 -3.85547 -8.71875c1.22949 3.64258 0.847656 2.56934 -1.14551 -3.2168c-1.75195 -5.2041 -3.5166 -10.4141 -5.1875 -15.6396c-4.47754 -13.9912 -8.15137 -28.3916 -9.99414 -42.9893
c-2.94141 -23.291 -1.99023 -51.7549 1.62109 -76.7324c2.99512 -20.7031 7.45703 -40.8711 26.9307 -51.5449c18.3496 -10.0576 33.9766 -5.09766 49.4912 7.08398c36.8564 28.9355 64.71 69.9443 87.832 110.073zM114.611 284.333c1.60254 0.716797 2.41895 3.56738 0 0z
" />
    <glyph glyph-name="d" unicode="d" horiz-adv-x="486" 
d="M486.262 152.468c7.2627 15.1514 31.9639 8.71094 24.5039 -8.67773c-12.2227 -28.5264 -25.4434 -56.502 -41.415 -83.1475c-17.7363 -29.5928 -38.9902 -61.0664 -68.9365 -79.6162c-12.1543 -7.52539 -17.5713 -9.3877 -28.8271 -15.2832
c-1.06738 -0.556641 -2.17871 -1.18848 -3.31152 -1.76465c1.16699 1.09863 2.48145 2.55957 3.89941 4.49609c-1.4834 -2.03125 -4.0498 -4.06543 -6.59668 -5.65527c-0.0849609 -0.0283203 -0.169922 -0.0693359 -0.254883 -0.0947266
c-1.44238 -0.447266 -2.12109 -0.976562 -2.22754 -1.30859c-0.641602 -0.332031 -1.26758 -0.635742 -1.83691 -0.874023c-2.91309 -1.2207 -5.51074 -1.36133 -8.28613 -1.5957c0.166016 -0.12793 -0.992188 -0.512695 -1.81836 -0.634766
c-1.89941 -0.28125 -3.78906 -0.609375 -5.69434 -0.859375c-46.3594 -6.04883 -87.8809 16.2998 -113.159 55.2246c-2.00586 3.08887 -11.6221 19.3447 -5.89551 10.1201c4.19922 -6.7627 -0.648438 1.07324 -1.44629 2.59375
c-3.58301 6.82129 -7.0625 13.7178 -10.2949 20.7148c-4.76855 10.3232 -9.1123 20.7627 -12.4414 31.6309c-10.7178 34.9727 -18.2783 70.6895 -23.9482 106.741c-10.0947 -29.0488 -20.2275 -58.0879 -31.0293 -86.9053
c-17.6484 -47.0889 -51.0938 -124.415 -115.309 -107.229c-33.2822 8.90918 -48.3184 42.6328 -54.6992 73.7217c-7.21289 35.1289 -5.43262 69.6289 1.00781 104.814c12.3828 67.6602 46.7422 138.277 118.486 156.715c24.5361 6.30566 47.2822 3.43945 67.0586 -5.79199
c-4.05566 60.6758 -5.08789 121.492 -3.78906 182.324c1.7334 81.1133 8.13281 162.176 20.3555 242.406c10.1729 66.7773 28.0654 133.414 59.2197 193.661c12.2324 23.6475 28.8955 46.2598 48.04 64.8506c8.55859 8.31152 17.5117 16.2754 27.6162 22.665
c1.0918 0.688477 2.20605 1.34277 3.31738 2c1.26074 0.748047 2.29688 1.36426 3.17285 1.88672c0.457031 0.222656 1.16699 0.588867 2.24609 1.1582c2.64453 1.39258 5.17969 2.86914 7.90234 4.1084c4.24316 1.93066 8.61133 3.38574 13.0801 4.69043
c1.68066 0.491211 3.37012 0.945312 5.05078 1.42676c-4.4375 -1.27344 -1.17969 -0.366211 -0.0683594 -0.0498047c3.10156 0.888672 6.16797 1.93359 9.3125 2.66309c3.62012 0.838867 7.25977 1.39258 10.9619 1.71191
c10.4639 0.901367 21.2627 0.234375 31.3916 -2.7041c24.8242 -7.20312 38.377 -31.9424 45.7432 -55.002c10.2109 -31.959 11.5381 -66.665 9.96094 -99.9316c-6.3584 -134.075 -35.2227 -269.323 -72.0195 -398.062
c-28.9297 -101.215 -64.9814 -200.239 -105.611 -297.314c1.94629 -16.5127 4.02734 -33.0127 6.4834 -49.4346c0.454102 -3.0293 0.945312 -6.05566 1.41113 -9.08496c0.966797 -5.16992 1.87695 -10.3486 2.91895 -15.5059
c1.6084 -7.97363 2.87891 -16.166 4.72559 -24.0547c-3.4668 14.833 0.350586 -1.80176 1.18945 -5.78516c4.39941 -20.9316 9.7002 -44.0879 22.252 -60.5762c8.69336 -11.4189 20.2275 -16.4316 33.4111 -21.1133c2.75977 -0.979492 5.53223 -1.88965 8.33887 -2.73438
c5.03516 -1.51465 -4.22754 1.33301 -0.353516 0.22168c3.35449 -0.963867 6.56543 -1.74316 9.39453 -3.20117c0.982422 -0.34375 1.97461 -0.628906 2.87598 -0.672852c2.24414 -0.112305 0.00390625 0.0195312 -1.04785 0.198242
c0.841797 -0.143555 2.71582 -0.0273438 3.30371 -0.49707c0.103516 -0.0849609 0.303711 -0.113281 0.529297 -0.123047c1.73047 0.766602 3.87109 1.29199 5.41992 2.02441c8.23633 3.88379 18.8662 12.4922 26.6143 20.6221
c34.8594 36.5713 57.543 84.8584 79.1221 129.895zM148.207 175.258c6.60254 18.9316 13.4414 37.7754 20.4004 56.5693c-8.19531 13.6279 -17.4355 27.8154 -32.2021 31.7832c-7.27832 1.95605 -13.0771 0.163086 -19.5518 -3.38281
c3.47363 1.90234 -7.17871 -6.31836 -5.36328 -4.125c-3.55469 -3.6582 -6.63672 -7.81738 -9.67188 -11.8945c-0.691406 -0.929688 -1.12598 -1.49023 -1.40137 -1.8252c-0.143555 -0.241211 -0.28125 -0.466797 -0.46582 -0.770508
c-1.33301 -2.16504 -2.56934 -4.39941 -3.74902 -6.65527c-2.39355 -4.5752 -4.38672 -9.31934 -6.46094 -14.041c-3.97754 -9.05273 -5.78613 -13.5615 -9.30664 -25.5244c-6.52734 -22.1768 -13.1084 -44.917 -14.6162 -68.0166
c-1.42383 -21.8047 -3.2793 -46.1533 1.84277 -67.5664c1.75195 -7.32227 4.37109 -18.0898 9.1709 -23.8506c1.12988 -1.35449 2.34668 -3.68262 4.31836 -4.21777c-2.07129 0.857422 4.25293 5.62598 5.58887 7.19727c15.4082 18.1279 25.6504 42.2891 34.9658 63.9561
c10.1572 23.623 18.04 48.1064 26.502 72.3643zM268.552 604.604c-6.87793 -120.504 -6.39258 -242.557 5.65527 -362.819c79.6611 197.227 137.605 405.43 154.801 617.977c2.40625 29.7461 3.80176 60.2686 -2.32227 89.6738
c-4.11133 19.752 -11.7002 52.1484 -32.6377 61.2393c-4.57812 1.9873 -9.55371 2.21289 -14.4668 2.44434c-5.10059 0.241211 -1.90918 0.419922 -7.11914 -0.368164c-2.25 -0.34082 -11.4844 -2.68457 -7.73535 -1.44824
c-1.53027 -0.500977 -3.14844 -0.960938 -4.59766 -1.6709c-0.481445 -0.241211 -0.819336 -0.397461 -1.07617 -0.513672c-1.68359 -1.14258 -6.37109 -4.95117 -6.97461 -5.30762c-0.725586 -0.735352 -1.43945 -1.47363 -2.18066 -2.1875
c-0.682617 -0.654297 -1.82129 -1.8623 -2.83203 -2.93555c-0.212891 -0.328125 -0.488281 -0.719727 -0.641602 -0.910156c-1.68652 -2.10645 -7.09082 -9.74805 -5.6543 -7.29785c-1.7959 -2.86035 -3.55176 -5.73926 -5.16309 -8.71875
c-2.06836 -3.81738 -3.96777 -7.72559 -5.73926 -11.6904c-0.998047 -2.23145 -1.88965 -4.50293 -2.86328 -6.74316c-0.0439453 -0.100586 -0.0751953 -0.168945 -0.116211 -0.265625c-2.95996 -9.34082 -5.72949 -18.6504 -8.39258 -28.085
c-13.9658 -49.4697 -23.9697 -99.7812 -30.9639 -150.726c-2.03418 -14.8008 -4.58105 -29.5303 -6.63672 -44.3281c-1.13281 -8.14551 -2.19043 -16.3037 -3.18555 -24.4678c-0.441406 -3.62012 -0.857422 -7.24414 -1.2832 -10.8682
c-0.046875 -0.381836 -0.0878906 -0.732422 -0.125 -1.05469c-0.015625 -0.150391 -0.03125 -0.288086 -0.046875 -0.457031c-3.34863 -32.7754 -5.82422 -65.582 -7.70215 -98.4707z" />
    <glyph glyph-name="e" unicode="e" horiz-adv-x="242" 
d="M243.713 169.754c6.78418 14.5352 30.5938 8.28711 23.4062 -8.28223c-25.9697 -59.8184 -62.5879 -130.576 -121.396 -164.35c-24.4736 -14.0537 -57.7686 -16.0596 -84.3203 -6.81543c-32.707 11.3877 -55.1064 38.6836 -67.6484 69.9131
c-26.1133 65.0225 -19.8672 149.387 7.69531 212.772c13.6436 31.377 41.459 66.5117 75.4678 76.4092c25.5752 7.44434 53.7793 0.328125 66.4873 -24.8682c12.8613 -25.5 1.74316 -55.3594 -15.6426 -75.6465c-12.6357 -14.7422 -28.46 -25.2441 -45.6084 -33.3896
c-2.10645 -9.54102 -3.87793 -19.1416 -5.09473 -28.7705c-5.20117 -41.1123 -2.72559 -88.0791 9.94141 -128.906c4.55957 -14.6885 15.5586 -44.5635 34.666 -42.041c19.5859 2.58496 38.7432 25.6729 50.9971 39.3691c30.1436 33.6924 52.0264 73.8564 71.0488 114.605z
M92.2637 254.072c-0.776367 -2.63184 -1.54395 -5.27148 -2.29199 -7.91895c7.82031 5.18164 14.8359 11.4023 20.3652 19.1445c7.04102 9.85352 13.7939 25.168 8.22363 37.0186c-0.416016 0.878906 -3.56055 3.97949 -5.89453 6.13867
c-0.875977 -2.51855 -1.7207 -5.13184 -1.46387 -4.5625c-9.10645 -20.2773 -12.4199 -27.7119 -18.9385 -49.8203z" />
    <glyph glyph-name="e" unicode="&#xeb;" horiz-adv-x="242" 
d="M243.713 169.754c6.78418 14.5352 30.5938 8.28711 23.4062 -8.28223c-25.9697 -59.8184 -62.5879 -130.576 -121.396 -164.35c-24.4736 -14.0537 -57.7686 -16.0596 -84.3203 -6.81543c-32.707 11.3877 -55.1064 38.6836 -67.6484 69.9131
c-26.1133 65.0225 -19.8672 149.387 7.69531 212.772c13.6436 31.377 41.459 66.5117 75.4678 76.4092c25.5752 7.44434 53.7793 0.328125 66.4873 -24.8682c12.8613 -25.5 1.74316 -55.3594 -15.6426 -75.6465c-12.6357 -14.7422 -28.46 -25.2441 -45.6084 -33.3896
c-2.10645 -9.54102 -3.87793 -19.1416 -5.09473 -28.7705c-5.20117 -41.1123 -2.72559 -88.0791 9.94141 -128.906c4.55957 -14.6885 15.5586 -44.5635 34.666 -42.041c19.5859 2.58496 38.7432 25.6729 50.9971 39.3691c30.1436 33.6924 52.0264 73.8564 71.0488 114.605z
M92.2637 254.072c-0.776367 -2.63184 -1.54395 -5.27148 -2.29199 -7.91895c7.82031 5.18164 14.8359 11.4023 20.3652 19.1445c7.04102 9.85352 13.7939 25.168 8.22363 37.0186c-0.416016 0.878906 -3.56055 3.97949 -5.89453 6.13867
c-0.875977 -2.51855 -1.7207 -5.13184 -1.46387 -4.5625c-9.10645 -20.2773 -12.4199 -27.7119 -18.9385 -49.8203z" />
    <glyph glyph-name="e" unicode="&#xea;" horiz-adv-x="242" 
d="M243.713 169.754c6.78418 14.5352 30.5938 8.28711 23.4062 -8.28223c-25.9697 -59.8184 -62.5879 -130.576 -121.396 -164.35c-24.4736 -14.0537 -57.7686 -16.0596 -84.3203 -6.81543c-32.707 11.3877 -55.1064 38.6836 -67.6484 69.9131
c-26.1133 65.0225 -19.8672 149.387 7.69531 212.772c13.6436 31.377 41.459 66.5117 75.4678 76.4092c25.5752 7.44434 53.7793 0.328125 66.4873 -24.8682c12.8613 -25.5 1.74316 -55.3594 -15.6426 -75.6465c-12.6357 -14.7422 -28.46 -25.2441 -45.6084 -33.3896
c-2.10645 -9.54102 -3.87793 -19.1416 -5.09473 -28.7705c-5.20117 -41.1123 -2.72559 -88.0791 9.94141 -128.906c4.55957 -14.6885 15.5586 -44.5635 34.666 -42.041c19.5859 2.58496 38.7432 25.6729 50.9971 39.3691c30.1436 33.6924 52.0264 73.8564 71.0488 114.605z
M92.2637 254.072c-0.776367 -2.63184 -1.54395 -5.27148 -2.29199 -7.91895c7.82031 5.18164 14.8359 11.4023 20.3652 19.1445c7.04102 9.85352 13.7939 25.168 8.22363 37.0186c-0.416016 0.878906 -3.56055 3.97949 -5.89453 6.13867
c-0.875977 -2.51855 -1.7207 -5.13184 -1.46387 -4.5625c-9.10645 -20.2773 -12.4199 -27.7119 -18.9385 -49.8203z" />
    <glyph glyph-name="e" unicode="&#xe9;" horiz-adv-x="242" 
d="M243.713 169.754c6.78418 14.5352 30.5938 8.28711 23.4062 -8.28223c-25.9697 -59.8184 -62.5879 -130.576 -121.396 -164.35c-24.4736 -14.0537 -57.7686 -16.0596 -84.3203 -6.81543c-32.707 11.3877 -55.1064 38.6836 -67.6484 69.9131
c-26.1133 65.0225 -19.8672 149.387 7.69531 212.772c13.6436 31.377 41.459 66.5117 75.4678 76.4092c25.5752 7.44434 53.7793 0.328125 66.4873 -24.8682c12.8613 -25.5 1.74316 -55.3594 -15.6426 -75.6465c-12.6357 -14.7422 -28.46 -25.2441 -45.6084 -33.3896
c-2.10645 -9.54102 -3.87793 -19.1416 -5.09473 -28.7705c-5.20117 -41.1123 -2.72559 -88.0791 9.94141 -128.906c4.55957 -14.6885 15.5586 -44.5635 34.666 -42.041c19.5859 2.58496 38.7432 25.6729 50.9971 39.3691c30.1436 33.6924 52.0264 73.8564 71.0488 114.605z
M92.2637 254.072c-0.776367 -2.63184 -1.54395 -5.27148 -2.29199 -7.91895c7.82031 5.18164 14.8359 11.4023 20.3652 19.1445c7.04102 9.85352 13.7939 25.168 8.22363 37.0186c-0.416016 0.878906 -3.56055 3.97949 -5.89453 6.13867
c-0.875977 -2.51855 -1.7207 -5.13184 -1.46387 -4.5625c-9.10645 -20.2773 -12.4199 -27.7119 -18.9385 -49.8203z" />
    <glyph glyph-name="f" unicode="f" horiz-adv-x="296" 
d="M304.879 162.764c14.5264 9.12793 28.3027 -9.28711 13.7051 -18.8652c-55.2246 -36.2305 -115.228 -64.5469 -172.733 -96.8311c-2.78223 -1.56152 -8.87207 -6.5459 -14.123 -9.90039c2.01172 -0.623047 4.07422 -1.08301 4.34961 -1.13281
c10.0352 -2.30957 19.9707 -6.73438 29.168 -11.2471c37.4727 -18.3906 68.3896 -48.5381 87.4404 -85.7012c16.1904 -31.5869 26.8076 -69.8916 7.99512 -102.36c-10.5146 -18.1465 -22.6465 -31.2705 -44.498 -33.9551
c-20.0205 -2.45605 -41.0078 2.1123 -59.0762 10.7461c-81.5293 38.9561 -113.188 135.258 -133.08 217.094c-23.1309 95.1602 -32.75 192.727 -32.3154 290.543c0.431641 96.9062 7.16309 195.853 30.9141 290.073c12.3232 48.8789 29.7559 96.1738 52.2393 141.316
c10.7705 21.6289 23.0215 42.46 37.8262 61.6143c13.8281 17.8867 31.4082 29.0049 51.1006 39.5254c36.7275 19.623 68.8682 -1.81836 79.7207 -39.1309c13.4434 -46.2188 4.31836 -97.6855 -1.32031 -144.434c-11.4971 -95.3574 -28.9053 -191.659 -54.8311 -284.2
c-22.6211 -80.7402 -52.3242 -159.266 -74.5352 -240.156c-0.660156 -2.40332 -1.82129 -4.48145 -3.30176 -6.24902c3.39258 -24.8711 7.59863 -49.5166 12.79 -73.8057c0.166016 -0.766602 0.332031 -1.54883 0.498047 -2.31836
c58.5195 36.6123 123.561 62.6133 182.067 99.375zM103.505 441.942c-5.59863 -73.9473 -7.00977 -149.671 -1.89062 -224.334c8.04199 26.0352 16.4404 51.9609 24.9238 77.874c28.4512 86.9238 49.6865 174.458 65.6738 264.53
c9.38477 52.8779 18.1406 106.382 21.2383 160.052c1.43652 24.918 2.02148 51.1123 -4.70996 75.376c-2.32227 8.37109 -6.07715 19.4551 -14.085 24.1211c-4.96875 2.89746 -6.78418 1.48926 -9.3623 -1.72754c-9.91016 -25.666 -23.4785 -49.5166 -32.0117 -75.9023
c-10.4863 -32.4277 -17.2861 -65.5693 -24.2734 -98.8672c-14.5605 -69.3975 -20.2646 -131.926 -25.5029 -201.122zM147.655 0.861328c-3.57031 1.68652 -7.57422 3.02539 -11.6924 4.29883c8.8623 -35.8105 19.708 -71.2334 35.082 -101.293
c8.08008 -15.8027 21.8584 -36.0459 40.127 -45.6592c5.56641 -2.93164 26.0127 -8.32617 28.4102 -5.71973c4.99414 5.43262 1.80566 26.0918 0.272461 33.4141c-10.3887 49.5986 -46.6094 93.4297 -92.1992 114.959zM127.992 39.457
c0.319336 0.285156 0.631836 0.516602 0.922852 0.604492c-0.503906 -0.150391 -0.779297 -0.313477 -0.948242 -0.485352c0.00585938 -0.0410156 0.015625 -0.078125 0.0253906 -0.119141z" />
    <glyph glyph-name="g" unicode="g" horiz-adv-x="399" 
d="M403.916 165.014c7.84473 12.3135 30.8184 6.83984 21.916 -7.75195c-38.1045 -62.4971 -83.666 -119.346 -130.674 -175.093c0.100586 -11.4189 0.125977 -22.8379 -0.00878906 -34.2598c-1.38281 -116.42 -7.49707 -242.415 -66.083 -346.074
c-21.8672 -38.6934 -62.9131 -86.4395 -112.521 -83.3633c-51.917 3.21973 -69.2119 68.6484 -69.9473 111.137c-1.88672 109.139 82.9814 202.121 149.803 279.579c0.867188 1.00098 1.74023 1.99902 2.60742 3c-0.716797 30.6914 -2.06543 61.3516 -4.01465 92.0459
c-3.87695 61.0635 -9.9043 121.914 -15.8369 182.784c-10.3857 -29.8965 -20.7969 -59.7871 -31.9121 -89.4463c-17.6484 -47.0889 -51.0938 -124.415 -115.309 -107.229c-33.2822 8.90918 -48.3184 42.6328 -54.6992 73.7217
c-7.21289 35.1289 -5.43262 69.6289 1.00781 104.814c12.3828 67.6602 46.7422 138.277 118.486 156.715c26.4043 6.78418 50.7305 2.95117 71.5146 -8.00781c5.3916 52.0957 96.9873 71.2031 102.896 8.75c9.60059 -101.475 20.3057 -203.165 23.3008 -305.109
c39.2783 45.793 77.0107 92.8125 109.474 143.788zM148.201 175.262c6.59961 18.9316 13.4404 37.7754 20.3994 56.5693c-8.19531 13.6279 -17.4355 27.8154 -32.2021 31.7832c-7.28125 1.95605 -13.0762 0.163086 -19.5537 -3.38281
c3.47656 1.90234 -7.17578 -6.31836 -5.36035 -4.125c-3.55469 -3.6582 -6.63672 -7.81738 -9.67188 -11.8945c-0.691406 -0.929688 -1.12598 -1.49023 -1.40137 -1.8252c-0.143555 -0.241211 -0.28125 -0.466797 -0.46582 -0.770508
c-1.33301 -2.16504 -2.56934 -4.39941 -3.74902 -6.65527c-2.39355 -4.5752 -4.38672 -9.31934 -6.46094 -14.041c-3.97754 -9.05273 -5.78613 -13.5615 -9.30664 -25.5244c-6.52734 -22.1768 -13.1084 -44.917 -14.6162 -68.0166
c-1.42383 -21.8047 -3.2793 -46.1533 1.84277 -67.5664c1.75195 -7.32227 4.37109 -18.0898 9.1709 -23.8506c1.12988 -1.35449 2.34375 -3.68262 4.31836 -4.21777c-2.07129 0.857422 4.25293 5.62598 5.58887 7.19727c15.4082 18.1279 25.6504 42.2891 34.9658 63.9561
c10.1572 23.623 18.04 48.1064 26.502 72.3643zM199.556 -150.732c0.0439453 6.65234 0.0537109 13.3027 0.0322266 19.9492c-24.8496 -29.9941 -49.208 -60.6416 -70.6963 -92.9756c-28.0283 -42.1758 -50.6777 -89.6436 -50.6904 -141.292
c-0.00292969 -24.001 4.5127 -50.8652 18.5156 -70.958c15.3242 -21.9893 40.0234 -22.1113 56.0322 -0.844727c27.3682 36.3555 34.0713 91.3896 39.7598 135.102c6.50293 49.9609 6.70898 100.729 7.04688 151.02z" />
    <glyph glyph-name="h" unicode="h" horiz-adv-x="409" 
d="M407.674 132.416c4.98828 13.8877 31.1377 14.4229 25.3926 -1.93066c-14.623 -41.5723 -34.5371 -87.9941 -65.7822 -120.041c-29.7188 -30.4854 -70.3867 -28.7051 -102.53 -3.63379c-39.7783 31.0264 -41.5371 86.7832 -44.9766 132.914
c-1.78711 23.9668 -4.49121 47.8174 -6.81934 71.7217c-1.02637 10.5234 -1.63379 21.1035 -2.61035 31.627c-0.431641 4.65625 -0.488281 9.9043 -1.90918 14.5293c-8.25488 -4.89746 -15.9814 -20.3398 -19.1699 -25.6904
c-5.6416 -9.46875 -10.6611 -19.3037 -15.2832 -29.3076c-9.64746 -20.8877 -17.4111 -42.5674 -25.2432 -64.1777c-11.9502 -32.9668 -23.5068 -65.9609 -31.9277 -99.8535c1.2334 -12.708 2.36035 -25.4248 3.21191 -38.1611
c2.89746 -43.3271 -63.6328 -65.4258 -82.1455 -23.998c-30.2314 67.6504 -35.708 147.229 -40.4424 220.359c-4.59082 70.9111 -6.59375 142.07 -4.96973 213.123c2.98828 130.661 21.166 259.436 77.5859 378.575c24.042 50.7656 61.6426 100.298 109.448 131.052
c22.8398 14.6953 51.4629 24.959 77.6641 12.7803c20.7344 -9.63477 31.4268 -29.8682 36.4023 -51.2686c13.6963 -58.9082 -1.83691 -122.701 -15.2334 -180.27c-14.7295 -63.2891 -32.6885 -125.786 -52.083 -187.785
c-37.6074 -120.216 -79.5391 -239.021 -121.634 -357.728c1.47363 -17.0605 3.2793 -34.0869 5.15723 -51.1035c8.68359 25.6787 18.2656 51.0508 27.9131 76.1162c15.749 40.9238 37.2871 100.001 85.8125 109.927c60.7324 12.4229 75.9375 -75.2178 79.2549 -116.79
c2.13379 -26.7705 2.98145 -53.6885 6.4209 -80.3398c1.87793 -14.5508 2.91992 -29.2363 3.48047 -43.8994c0.316406 -8.2959 -0.948242 -17.8398 3.68945 -25.0342c26.3984 -40.9521 85.2402 91.3486 91.3262 108.287zM97.6094 355.387
c0.400391 -43.4023 0.954102 -86.8398 2.75684 -130.221c35.5947 100.902 70.5264 202.058 102.104 304.29c17.6895 57.2744 34.1709 114.962 47.123 173.507c6.54004 29.5713 12.9609 59.4551 16.0215 89.624c2.58203 25.4375 5.01074 55.1807 -3.68848 79.7354
c-7.91992 22.3613 -25.6035 36.1582 -47.7676 21.2383c-19.6699 -13.2432 -32.5469 -34.4189 -42.5732 -55.3506c-21.9863 -45.8994 -34.6533 -97.2285 -45.2773 -146.765c-23.7383 -110.688 -29.7529 -221.284 -28.6982 -336.059z" />
    <glyph glyph-name="i" unicode="i" horiz-adv-x="188" 
d="M185.726 151.939c4.9375 15.5146 33.4219 16.1494 27.8301 -2.125c-14.4854 -47.3076 -30.4346 -98.0508 -62.4062 -136.872c-28.3506 -34.4277 -87.2432 -53.9756 -120.717 -16.2217c-33.6426 37.9453 -42.1572 99.2627 -44.5039 147.838
c-2.68457 55.5723 0.150391 112.515 7.62598 167.62c5.83594 43.0332 86.7168 54.9746 86.4072 4.13672c-0.262695 -43.4902 -4.64355 -86.7734 -3.65137 -130.332c0.941406 -41.4062 4.77148 -83.4385 11.3057 -124.341c2.25586 -14.1064 5.01562 -30.125 11.8877 -42.708
c4.11133 -7.53223 6.77441 -8.34863 14.1621 -3.70215c8.78027 5.52637 15.4707 13.4531 21.4541 21.8145c24.4482 34.168 37.998 75.2676 50.6055 114.893zM21.3271 417.126c-16.3281 6.51172 -28.8232 21.7471 -39.1807 35.5127
c-11.5371 15.3242 -19.5703 37.4287 -19.4609 56.7676c0.103516 18.0273 31.793 39.7568 43.4277 18.4658c6.21777 -11.3779 14.0225 -24.2012 22.4805 -35.6445c1.83105 4.22754 3.58301 8.36719 5.50781 11.4932c5.78906 9.39746 12.3291 18.1592 19.5947 26.4551
c8.77734 10.0195 30.9414 7.3125 26.5195 -9.44141c-7.87305 -29.8242 -27.7627 -54.2197 -36.374 -83.6035c-0.347656 -1.18945 -0.829102 -2.29395 -1.40137 -3.32617c1.06055 -9.84766 -9.81348 -21.1816 -21.1133 -16.6787z" />
    <glyph glyph-name="i" unicode="&#xef;" horiz-adv-x="188" 
d="M185.726 151.939c4.9375 15.5146 33.4219 16.1494 27.8301 -2.125c-14.4854 -47.3076 -30.4346 -98.0508 -62.4062 -136.872c-28.3506 -34.4277 -87.2432 -53.9756 -120.717 -16.2217c-33.6426 37.9453 -42.1572 99.2627 -44.5039 147.838
c-2.68457 55.5723 0.150391 112.515 7.62598 167.62c5.83594 43.0332 86.7168 54.9746 86.4072 4.13672c-0.262695 -43.4902 -4.64355 -86.7734 -3.65137 -130.332c0.941406 -41.4062 4.77148 -83.4385 11.3057 -124.341c2.25586 -14.1064 5.01562 -30.125 11.8877 -42.708
c4.11133 -7.53223 6.77441 -8.34863 14.1621 -3.70215c8.78027 5.52637 15.4707 13.4531 21.4541 21.8145c24.4482 34.168 37.998 75.2676 50.6055 114.893zM21.3271 417.126c-16.3281 6.51172 -28.8232 21.7471 -39.1807 35.5127
c-11.5371 15.3242 -19.5703 37.4287 -19.4609 56.7676c0.103516 18.0273 31.793 39.7568 43.4277 18.4658c6.21777 -11.3779 14.0225 -24.2012 22.4805 -35.6445c1.83105 4.22754 3.58301 8.36719 5.50781 11.4932c5.78906 9.39746 12.3291 18.1592 19.5947 26.4551
c8.77734 10.0195 30.9414 7.3125 26.5195 -9.44141c-7.87305 -29.8242 -27.7627 -54.2197 -36.374 -83.6035c-0.347656 -1.18945 -0.829102 -2.29395 -1.40137 -3.32617c1.06055 -9.84766 -9.81348 -21.1816 -21.1133 -16.6787z" />
    <glyph glyph-name="i" unicode="&#xee;" horiz-adv-x="188" 
d="M185.726 151.939c4.9375 15.5146 33.4219 16.1494 27.8301 -2.125c-14.4854 -47.3076 -30.4346 -98.0508 -62.4062 -136.872c-28.3506 -34.4277 -87.2432 -53.9756 -120.717 -16.2217c-33.6426 37.9453 -42.1572 99.2627 -44.5039 147.838
c-2.68457 55.5723 0.150391 112.515 7.62598 167.62c5.83594 43.0332 86.7168 54.9746 86.4072 4.13672c-0.262695 -43.4902 -4.64355 -86.7734 -3.65137 -130.332c0.941406 -41.4062 4.77148 -83.4385 11.3057 -124.341c2.25586 -14.1064 5.01562 -30.125 11.8877 -42.708
c4.11133 -7.53223 6.77441 -8.34863 14.1621 -3.70215c8.78027 5.52637 15.4707 13.4531 21.4541 21.8145c24.4482 34.168 37.998 75.2676 50.6055 114.893zM21.3271 417.126c-16.3281 6.51172 -28.8232 21.7471 -39.1807 35.5127
c-11.5371 15.3242 -19.5703 37.4287 -19.4609 56.7676c0.103516 18.0273 31.793 39.7568 43.4277 18.4658c6.21777 -11.3779 14.0225 -24.2012 22.4805 -35.6445c1.83105 4.22754 3.58301 8.36719 5.50781 11.4932c5.78906 9.39746 12.3291 18.1592 19.5947 26.4551
c8.77734 10.0195 30.9414 7.3125 26.5195 -9.44141c-7.87305 -29.8242 -27.7627 -54.2197 -36.374 -83.6035c-0.347656 -1.18945 -0.829102 -2.29395 -1.40137 -3.32617c1.06055 -9.84766 -9.81348 -21.1816 -21.1133 -16.6787z" />
    <glyph glyph-name="i" unicode="&#xed;" horiz-adv-x="188" 
d="M185.726 151.939c4.9375 15.5146 33.4219 16.1494 27.8301 -2.125c-14.4854 -47.3076 -30.4346 -98.0508 -62.4062 -136.872c-28.3506 -34.4277 -87.2432 -53.9756 -120.717 -16.2217c-33.6426 37.9453 -42.1572 99.2627 -44.5039 147.838
c-2.68457 55.5723 0.150391 112.515 7.62598 167.62c5.83594 43.0332 86.7168 54.9746 86.4072 4.13672c-0.262695 -43.4902 -4.64355 -86.7734 -3.65137 -130.332c0.941406 -41.4062 4.77148 -83.4385 11.3057 -124.341c2.25586 -14.1064 5.01562 -30.125 11.8877 -42.708
c4.11133 -7.53223 6.77441 -8.34863 14.1621 -3.70215c8.78027 5.52637 15.4707 13.4531 21.4541 21.8145c24.4482 34.168 37.998 75.2676 50.6055 114.893zM21.3271 417.126c-16.3281 6.51172 -28.8232 21.7471 -39.1807 35.5127
c-11.5371 15.3242 -19.5703 37.4287 -19.4609 56.7676c0.103516 18.0273 31.793 39.7568 43.4277 18.4658c6.21777 -11.3779 14.0225 -24.2012 22.4805 -35.6445c1.83105 4.22754 3.58301 8.36719 5.50781 11.4932c5.78906 9.39746 12.3291 18.1592 19.5947 26.4551
c8.77734 10.0195 30.9414 7.3125 26.5195 -9.44141c-7.87305 -29.8242 -27.7627 -54.2197 -36.374 -83.6035c-0.347656 -1.18945 -0.829102 -2.29395 -1.40137 -3.32617c1.06055 -9.84766 -9.81348 -21.1816 -21.1133 -16.6787z" />
    </font>
</defs>
</svg>
